Główna Torrenty Wstaw Wstaw Szybkie wstawianie Prośby Napisy Poradnik Załoga Forum
Enable / Włącz Javascript
 Widok 
 Kategorie 
 Nitro Torrent w sieci 
 Top 10 użytkowników 
 Piła VII 3D - Saw: The Final Chapter 3D *2010* (60FPS) [1080p.3D.Half.Over-Under.DTS-HD MA 5.1.AC3.BluRay.x264-SONDA] [Lektor i Napisy PL] [ENG]

Piła VII 3D - Saw: The Final Chapter 3D *2010* (60FPS) [1080p.3D.Half.Over-Under.DTS-HD MA 5.1.AC3.BluRay.x264-SONDA] [Lektor i Napisy PL] [ENG]
Kategoria: » » »
Dodane: 03/10/2017
Rozmiar: 13.44 GB
Uploader: SYSTEM-AURY (1)
seed(ów): 0
leecher(ów): 0
Pobrane: 30
Komentarzy: 1
Pobierz Torrent Pobierz Torrent
Pobierz [Magnet] Pobierz [Magnet]

Obserwuj
Raportuj
Piła VII 3D - Saw: The Final Chapter 3D *2010* 60FPS.H-OU.1080p-Sonda
===============================================

[Oryginalny obrazek]
[Oryginalny obrazek]

gatunek: Horror
premiera: 29 października 2010 (Polska) 2010-10-29 21 października 2010 (Świat) 2010-10-21
produkcja: Kanada, USA
reżyseria: Kevin Greutert
scenariusz: Patrick Melton, Marcus Dunstan

http://www.imdb.com/title/tt1477076/
http://www.filmweb.pl/film?id=533274

Obsada:

Tobin Bell ... Jigsaw / John Kramer
Costas Mandylor ... Detektyw Mark Hoffman
Betsy Russell ... Jill Tuck
Cary Elwes ... Dr Lawrence Gordon
Sean Patrick Flanery ... Bobby Dagen
Chad Donella ... Detektyw Matt Gibson
Gina Holden ... Joyce Dagen
Laurence Anthony ... Detektyw Rogers

Storyline:

Detective Matt Gibson chases the psychotic Detective Mark Hoffman while Jigsaw's widow Jill Tuck tries to kill him as assigned by her husband. However he escapes and Jill meets Gibson and offers to sign an affidavit listing the murders committed by Hoffman. In return, she requests protection. Meanwhile, the prominent Jigsaw survivor and leader of a support group Bobby Dagen is abducted with his wife and friends and forced to play a mortal game to save himself and his beloved wife.

Opis:

Groza jeszcze nigdy nie była tak widowiskowa. Kultowa seria horrorów zyskuje nowy wymiar. Geniusz zbrodni Jigsaw powraca na ekrany kin w 3D.
Grupa ludzi, którzy przetrwali mordercze zabawy Jigsawa, szuka wsparcia u guru samopomocy, a przy okazji również niedoszłej ofiary geniusza zbrodni - Bobby'ego Dagena. Okazuje się, że skrywa on mroczne sekrety, których ujawnienie doprowadza do nowej fali terroru na niewyobrażalną skalę.

Screenshots:

[Oryginalny obrazek]
[Oryginalny obrazek]
[Oryginalny obrazek]

[Oryginalny obrazek]

[Oryginalny obrazek]



General
Format : Matroska
Format version : Version 2
File size : 13.4 GiB
Duration : 1h 30mn
Overall bit rate mode : Variable
Overall bit rate : 21.3 Mbps
Movie name : SAW_3D.2010.60FPS.H-OU.1080p Rip by Sonda [AT-Team]
Encoded date : UTC 2015-05-21 11:41:29
Writing application : mkvmerge v5.7.0 ('The Whirlwind') built on Jul 8 2012 20:08:51
Writing library : libebml v1.2.3 + libmatroska v1.3.0

Video
ID : 1
Format : AVC
Format/Info : Advanced Video Codec
Format profile : [email protected]
Format settings, CABAC : Yes
Format settings, ReFrames : 4 frames
Codec ID : V_MPEG4/ISO/AVC
Duration : 1h 30mn
Width : 1 920 pixels
Height : 1 080 pixels
Display aspect ratio : 1.78:1
Frame rate mode : Constant
Frame rate : 60.000 fps
Original frame rate : 59.940 fps
Color space : YUV
Chroma subsampling : 4:2:0
Bit depth : 8 bits
Scan type : Progressive
Title : 3D 60FPS Rip by Sonda
Writing library : x264 core 146 r2538 121396c
Default : Yes
Forced : No

Audio #1
ID : 2
Format : AC-3
Format/Info : Audio Coding 3
Mode extension : CM (complete main)
Format settings, Endianness : Big
Codec ID : A_AC3
Duration : 1h 30mn
Bit rate mode : Constant
Bit rate : 640 Kbps
Channel(s) : 6 channels
Channel positions : Front: L C R, Side: L R, LFE
Sampling rate : 48.0 KHz
Compression mode : Lossy
Stream size : 413 MiB (3%)
Title : AC3 5.1 Lektor PL
Language : Polish
Default : Yes
Forced : Yes

Audio #2
ID : 3
Format : AC-3
Format/Info : Audio Coding 3
Mode extension : CM (complete main)
Format settings, Endianness : Big
Codec ID : A_AC3
Duration : 1h 30mn
Bit rate mode : Constant
Bit rate : 640 Kbps
Channel(s) : 6 channels
Channel positions : Front: L C R, Side: L R, LFE
Sampling rate : 48.0 KHz
Compression mode : Lossy
Stream size : 413 MiB (3%)
Title : AC3 5.1 ENG
Language : English
Default : No
Forced : No

Audio #3
ID : 4
Format : DTS
Format/Info : Digital Theater Systems
Mode : 16
Format settings, Endianness : Big
Codec ID : A_DTS
Duration : 1h 30mn
Bit rate mode : Constant
Bit rate : 1 509 Kbps
Channel(s) : 6 channels
Channel positions : Front: L C R, Side: L R, LFE
Sampling rate : 48.0 KHz
Bit depth : 24 bits
Compression mode : Lossy
Stream size : 973 MiB (7%)
Title : DTS 5.1 Lektor PL
Language : Polish
Default : No
Forced : No

Audio #4
ID : 5
Format : DTS
Format/Info : Digital Theater Systems
Format profile : MA / Core
Mode : 16
Format settings, Endianness : Big
Codec ID : A_DTS
Duration : 1h 30mn
Bit rate mode : Variable
Bit rate : 4232 / 1 509 Kbps
Channel(s) : 6 channels
Channel positions : Front: L C R, Side: L R, LFE
Sampling rate : 48.0 KHz
Bit depth : 24 bits
Compression mode : Lossless / Lossy
Title : DTS-HD MA 5.1 Original
Language : English
Default : No
Forced : No

Text #1
ID : 6
Format : UTF-8
Muxing mode : zlib
Codec ID : S_TEXT/UTF8
Codec ID/Info : UTF-8 Plain Text
Title : Napisy PL 2D
Language : Polish
Default : No
Forced : No

Text #2
ID : 7
Format : PGS
Muxing mode : zlib
Codec ID : S_HDMV/PGS
Codec ID/Info : Picture based subtitle format used on BDs/HD-DVDs
Title : Napisy PL 3D
Language : Polish
Default : No
Forced : No

Source:
A/V-Saw 2D&3D 2010.1080p BluRay AVC DTS-HD-MA - EiMi

torrent pobrano z http://*censored*


Dostępne napisy
Brak napisów
Szczegóły torrenta
Tracker http://tracker.aletorrenty.pl:2710/announce
Multitracker [ Pokaż ]
Kategoria: » » » [Zgłoś błąd]
Dodane 03-10-2017
Podziękowali:
0 użytkowników 
Podziękuj!
Pokaż / Ukryj pliki:
Nazwa pliku Rozmiar
info/Torrent downloaded from sonda torrents at aletorrenty.pl.txt 0.38 KB
info/Torrent downloaded from sonda torrents at torrentgarden.net.txt 0.22 KB
info/Torrent downloaded from Sonda torrents at BTS.to.txt 0.11 KB
info/Torrent downloaded from Sonda torrents at AhaShare.com.txt 0.06 KB
info/Torrent downloaded from sonda torrents at h33t.to.txt 0.04 KB
info/Torrent downloaded from sonda000 torrents at demonoid.ph.txt 0.02 KB
SAW_3D.2010.PL.ENG.H-OU.1080p.60FPS(Sonda).mkv 13.44 GB
cover5.jpg 114.39 KB
SAW_3D.2010.PL.ENG.H-OU.1080p.60FPS(Sonda).srt 61.35 KB
Upload by Sonda [AT-TEAM].jpg 45.62 KB
Read iNFO.txt 2.07 KB
Ale Torrenty Team enjoy !.url 0.11 KB
12 plików

<< Poprz.      Następna >>
1 - 1



Bx (1)
proszę o seed pls
31/05/2020 18:15:01 # 0 0

1 - 1
<< Poprz.      Następna >>