Główna Torrenty Wstaw Wstaw Szybkie wstawianie Prośby Napisy Poradnik Załoga Forum
Enable / Włącz Javascript
 Widok 
 Kategorie 
 Nitro Torrent w sieci 
 Top 10 użytkowników 
 Louis De Funes Filmografia *1963-1981* [DVDRip.XviD-KiCZ] [Lektor PL]

Louis De Funes Filmografia *1963-1981* [DVDRip.XviD-KiCZ] [Lektor PL]
Kategoria: » » »
Dodane: 03/10/2017
Rozmiar: 15.03 GB
Uploader: Nitro.To❱ Wędrowiec
seed(ów): 0
leecher(ów): 0
Pobrane: 95
Komentarzy: 2
Pobierz Torrent Pobierz Torrent
Pobierz [Magnet] Pobierz [Magnet]

Obserwuj
Raportuj
Pouic-Pouic
Koko

7,1/10 6,5/10


gatunek: Komedia
produkcja: Francja
premiera:20 listopada 1963 (świat)
reżyseria:Jean Girault
scenariusz: Jean Girault,Jacques Vilfrid


Louis de Funes: Leonard Monestier
Mireille Darc: Patricia



ranizacja sztuki Jacques'a Vilfrida i Jeana Giraulta 'Sans ceremonie', to jedna z pierwszych komedii, w której główną rolę powierzono Louisowi de Funesowi, dotąd znanemu jedynie z zabawnych epizodów i ról drugoplanowych. Leonard Monestier szykuje operację giełdową, która ma mu przynieść krociowe zyski. Podczas gdy on z przejęciem śledzi notowania spółek, jego żona Cynthia, kobieta rozrzutna i niezbyt bystra, zajmuje się głównie swoim ulubieńcem, kogutem zwanym KoKo, którego sama karmi i wyprowadza na smyczy na spacer. Do dorosłej córki Monestierów, ślicznej Patricii, zaleca się milioner Antoine Brevin. Obsypuje ją drogimi prezentami, przysyła kosze kwiatów. Dziewczyna konsekwentnie odsyła podarunki w nadziei, że podstarzały zalotnik wreszcie zrozumie, że nie ma szans i da jej spokój. Antoine jest jednak bardzo wytrwały. Wreszcie zdesperowana dziewczyna wynajmuje młodego człowieka, Simona Guilbaud, by udawał jej świeżo poślubionego małżonka. Simon przystaje na to bez chwili wahania, choć Patricia obwarowuje 'związek' licznymi warunkami.


Rozmiar pliku.....: 654,09 MB
Czas trwania:.....: 1:22:55

Kodek Video.......: XviD ISO MPEG-4
Video Bitrate.....: 900 kbps
FPS...............: 25.000
Rozdzielczość.....: 640 x 400

Kodek Audio.......: 0x0055 MPEG-1 Layer 3
Audio Bitrate.....: 192 kb/s tot , Joint Stereo
Czest. próbkowania: 48000Hz
Język.............: Francuski
Lektor PL


Faites sauter la banque!
Napad na bank

7,6/10 6,7/10


Produkcja: Francja
Gatunek: Komedia
premiera: 25 lutego 1964
Reżyseria: Jean Girault
scenariusz: Jean Girault, Louis Sapin


Louis de Funes: Victor Garnier
Georges Adet: Gerber
Anne Doat: Isabelle Garnier
Yvonne Clech: Eliane Garnier
Jean-Pierre Marielle: Andr?? Durand-Mareuil


Victor Garnier, właściciel świetnie prosperującego sklepu, poznaje na polowaniu dyrektora banku Duranda-Mareuila. Z jego namową ulokować swe oszczędności na giełdzie w akcjach tajemniczej spółki Tangana. Niestety, zamiast spodziewanych milionów, otrzymuje informację, że Tangana splajtowała. Zrujnowana familia dochodzi do wniosku, że za tą sprawą kryje się Durand-Mareuil, który zagarnął podstępem ich pieniądze. Po burzliwej naradzie Garnierowie postanawiają odebrać swój majątek okradając bank dyrektora oszusta. W tym celu muszą tylko wykonać podkop między piwnicą ich sklepu a znajdującym się po drugiej stronie ulicy bankiem.


Audio : 62 MB, 103 Kbps, 48000 Hz, 2 kanał(y), 0x55 = MPEG Layer-3,
Video : 637 MB, 1056 Kbps, 25.0 fps, rozdz. 624*352 (16:9), XVID = XVID Mpeg-4,
Plik : 699 MB (699 MB), czas 1:24:18, rodzaj: AVI, 1 ścieżka(i) audio, jakość 51 %



Le corniaud
Gamon

7,5/10 7,5/10


Produkcja: Francja, Włochy
Gatunek: Komedia
premiera:24 marca 1965
Reżyseria: G??rard Oury
Scenariusz: Marcel Jullian, G??rard Oury



Louis de Funes - Leopold Saroyan
Venantino Venantini - Mickey
Henri G??nes - Martial
Beba Loncar - Ursula, the nudist
Bourvil - Antoine Marechal, sklepikarz



Szacowny obywatel francuski planuje urlop i zamierza swoje plany zrealizować jako turysta samochodowy. Niestety, w wypadku, samochód bohatera zostaje rozbity. Sprawca wypadku oddaje poszkodowanemu swoją luksusową limuzynę, która w zamaskowany sposób naszpikowana jest towarem przemytników. Wakacyjny wojaż obfituje w fantastyczne gagi uznanych komików francuskich.


Audio : 81 MB, 107 Kbps, 48000 Hz, 2 kanał(y), 0x55 = MPEG Layer-3,
Video : 617 MB, 816 Kbps, 25.0 fps, rozdz. 544*224 (), XVID = XVID Mpeg-4,
Plik : 698 MB (698 MB), czas 1:45:45, rodzaj: AVI, 1 ścieżka(i) audio, jakość 42 %


Le grand restaurant
Sławna restauracja


7,5/10 6,8/10


Produkcja: Francja
Gatunek: Komedia
premiera:9 września 1966
Reżyseria: Jacques Besnard
Scenariusz: Jean Halain, Louis de Funes



Louis de Funes - Monsieur Septime
Bernard Blier - Le commissaire divisionnaire
Maria-Rosa Rodriguez - Sophia
Venantino Venantini - Henrique
Juan Ram?­rez - Le g??n??ral



Pan Septime jest właścicielem małej i słynnej restauracji. To u niego właśnie często są przyjmowani oficjalni goście. Tak właśnie jest i tym razem. Prezydent z zaprzyjaźnionego kraju odwiedza restaurację. Podczas podawania specjalności zakładu (niespodzianki) zostaje on porwany. Aby uratować imię swej restauracji Septime samemu rusza w poszukiwania, nie wie jednak, że nie tylko on jest zainteresowany znalezieniem prezydenta .


Audio : 95 MB, 159 Kbps, 48000 Hz, 2 kanał(y), 0x55 = MPEG Layer-3,
Video : 604 MB, 1012 Kbps, 25.0 fps, rozdz. 640*272 (2.21:1), DIV3 = DivX v3 MPEG-4 (Low-Motion),
Plik : 699 MB (699 MB), czas 1:23:29, rodzaj: AVI, 1 ścieżka(i) audio, jakość 63 %



La Grande vadrouille
Wielka włóczęga

7,8/10 8,1/10


Polski tytuł: Wielka Włóczęga
Oryginalny tytuł: La Grande vadrouille
Produkcja: Francja
Gatunek: Komedia
Data premiery: 1966-12-08 (Świat)
Reżyseria: G??rard Oury
Czas trwania: 132 min



Louis de Funes: Stanislas LeFort
Bourvil: Augustin Bouvet
Claudio Brook: Peter Cunningham



Malarz pokojowy i dyrygent mają za zadanie eskortować lotników zestrzelonych nad Francją podczas wojny. Ich podróż pełna jest niesamowitych przygód,a fabuła pełna niezliczonych zwariowanych pomysłów.



Video
Format : MPEG-4 Visual
Format settings, BVOP : Yes
Format settings, QPel : No
Format settings, GMC : No warppoints
Format settings, Matrix : Default
Muxing mode : Packet Bitstream
Codec ID : DX50
Codec ID/Hint : DivX 5
Duration : 1h 58mn
Bit rate : 655 Kbps
Width : 640 pixels
Height : 344 pixels
Display aspect ratio : 1.860
Frame rate : 25.000 fps
Resolution : 24 bits
Colorimetry : 4:2:0
Scan type : Progressive
Bits/(Pixel*Frame) : 0.119
Stream size : 556 MiB (76%)
Writing library : DivX 5.2.1 (WaffleDay) (UTC 2004-09-0

Audio
Format : MPEG Audio
Format version : Version 1
Format profile : Layer 3
Codec ID : 55
Codec ID/Hint : MP3
Duration : 1h 58mn
Bit rate mode : Constant
Bit rate : 192 Kbps
Channel(s) : 2 channels
Sampling rate : 48.0 KHz
Resolution : 16 bits
Stream size : 163 MiB (22%)
Alignment : Split accross interleaves
Interleave, duration : 40 ms (1.00 video frame)
Interleave, preload duration : 500 ms
Writing library : LAME3.93


Le Petit baigneur
Mały pływak

7,5/10

Produkcja: Francja, Wielka Brytania
Gatunek: Komedia
Data premiery: 1968-03-22
Reżyseria: Robert Dh??ry
Scenariusz: Colette Brosset, Jean Carmet



Louis de Funes - Louis-Philippe Fourchaume
Andr??a Parisy - Marie-B??atrice Fourchaume
Franco Fabrizi - Marcello Cacciaperotti
Michele Alexandre - L'??pouse du ministre
Nicole Vervil - La mere du petit Francis
Robert Rollis - Un marin
Georges Adet - Le gardien du chantier
Philippe Dumat - Le joueur de tambour de la fanfare
Henri G??nes - Le paysan


Pewien przemysłowiec stoczniowy wyrzuca z pracy pewnego młodego, zdolnego konstruktora jachtów. Okazuje się jednak, że decyzja była zbyt pochopna. Jak zachęcić wyrzuconego, do powrotu do pracy. Czy jedna niedziela wystarczy? Jakich metod będzie musiał użyć zły pracodawca?
[opis dystrybutora]


Video:
rozdzielczość: 1128x480
szybkość klatek: 25 kl/s
szybkość danych: 1407 kb/s
kompresja: XVID

Audio:
szybkość transmisji bitów: 128 kb/s
format dźwięku: MP3
język: lektor PL


Oscar
Oskar

7,4/10 7,7/10


gatunek:Komedia
produkcja:Francja
premiera:11 października 1967 (świat)
reżyseria:Edouard Molinaro
scenariusz:Louis de Fun?s,Edouard Molinaro,Jean Halain


Louis de Fun?s - Bertrand Barnier
Claude Gensac - Germaine Barnier
Sylvia Saurel - Jacqueline
Agathe Natanson - Colette
Mario David - Philippe Dubois, masażysta



Dzień z życia Bertranda Barniera. No cóż nie jest to zwykły dzień, a raczej katastrofalny zbieg wydarzeń. Oto rano Barnier dowiaduje się, że jego córka jest w ciąży, pracownik ukradł z firmy dużo pieniędzy, a służąca rezygnuje, by poślubić bogatego sąsiada ... Oczywiście to dopiero początek absurdalnej komedii błędów i pomyłek.


Audio : 57 MB, 100 Kbps, 48000 Hz, 2 kanał(y), 0x55 = MPEG Layer-3,
Video : 642 MB, 1125 Kbps, 25.0 fps, rozdz. 608*272 (2.21:1), XVID = XVID Mpeg-4,
Plik : 699 MB (699 MB), czas 1:19:50, rodzaj: AVI, 1 ścieżka(i) audio, jakość 50 %



Les grandes vacances
Wielkie wakacje

7,5/10 6,6/10


Produkcja: Francja
Gatunek: Komedia
premiera:1 grudnia 1967
Reżyseria: Jean Girault
scenariusz:Jean Girault,Jacques Vilfrid



Louis de Funes :Balduin Bosquier
François Leccia : Philippe Bosquier
Martine Kelly :Shirley
Olivier De Funes :G??rard
Claude Gensac :Mme. Bosquier



Syn dyrektora szkoły nie zdaje egazminu. Za kare ma pojechać na obóz do Anglii. Jednakże Philippe podstawia tam swojego kolegę, a sam wypływa w rejs. Zdesperowany dyrektor Bosquier postanawia samemu odnaleźć syna...



Audio : 78 MB, 128 Kbps, 48000 Hz, 2 kanał(y), 0x55 = MPEG Layer-3,
Video : 623 MB, 1013 Kbps, 25.0 fps, rozdz. 640*272 (2.21:1), XVID = XVID Mpeg-4,
Plik : 702 MB (702 MB), czas 1:25:58, rodzaj: AVI, 1 ścieżka(i) audio, jakość 56 %


Le Tatou??
Człowiek z tatuażem

7,3/10 6,5/10


Polski tytuł: Człowiek z Tatuażem
Oryginalny tytuł: Le Tatou??
Produkcja: Francja, Włochy
Gatunek: Komedia
Data premiery: 1968-09-18 (Świat)
Reżyseria: Denys de La Patelliere
Scenariusz: Alphonse Boudard, Pascal Jardin
Zdjęcia: Sacha Vierny
Muzyka: Georges Garvarentz
Czas trwania: 86 min.


Jean Gabin ... Comte Enguerand - Louis Marie de Montignac aka Legrain
Louis de Funes ... F??licien M??zeray
Paul Mercey ... Pellot
Yves Barsacq ... Le postier
Pierre Tornade ... Le brigadier
Jean-Pierre Darras ... Lucien
Joe Warfield ... Larsen
Donald J. von Kurtz ... Smith
Lyne Chardonnet ... Val??rie M??zeray
Ibrahim Seck ... Le valet de M??zeray / Butler
Michel Barbey ... Le pilote de l'h??lico



Handlarz dziełami sztuki odkrywa pewnego razu niezwykły obraz Modiglianniego. Problem w tym, że jest on... wytatuowany na plecach byłego żołnierza Legii Cudzoziemskiej. Pragnąc zdobyć dzieło, zgadza się na wyremontowanie letniego domku żołnierza. Jednakże nie wie w co się pakuje.


Format : MPEG-4 Visual
Profil formatu : Advanced Simple@L5
Ustawienia formatu, BVOP : 2
Ustawienia formatu, QPel : Nie
Ustawienia formatu, GMC : Brak punktów podziału
Ustawienia formatu, matryca : Default (H.263)
ID kodeka : XVID
ID kodeka/Wskazówka : XviD
Czas trwania : 1h 26 min.
Przepływność bitów : 1.007 Kb/s
Szerokość : 640 pikseli
Wysokość : 272 piksele
Proporcje obrazu : 2,35:1
Szybkość wyświetlania klatek : 25,000 kl/s
ColorSpace : YUV
ChromaSubsampling : 4:2:0
BitDepth/String : 8 bitów
Rodzaj skanu : Progresywny
bity/(piksele*ramki) : 0.231
Rozmiar strumienia : 622 MB (89%)
Biblioteka zapisująca : XviD 1.1.2 (UTC 2006-11-01)

AUDIO:
Format : MPEG Audio
Wersja formatu : Version 1
Profil formatu : Layer 3
Format_Settings_Mode : Joint stereo
Format_Settings_ModeExtension : MS Stereo
ID kodeka : 55
ID kodeka/Wskazówka : MP3
Czas trwania : 1h 26 min.
Rodzaj przepływności : Zmienna
Przepływność bitów : 113 Kb/s
Nominalna przepływaność : 120 Kb/s
Kanały : 2 kanały
Częstotliwość próbkowania : 48,0 KHz
Rozmiar strumienia : 69,8 MB (10%)
Wyrównanie : Wyrównane w przeplocie
Przeplot, czas trwania : 24 ms (0,60 klatka wideo)
Przeplot, czas wczytywania : 499 ms
Biblioteka zapisująca : LAME3.97b
Ustawienia kodowania : -m j -V 4 -q 3 -lowpass 17 --abr 120


Hibernatus

7,3/10 6,3/10


tytuł filmu: Hibernatus
rok produkcji: 1969
produkcja: Francja, Włochy
gatunek: Komedia
reżyseria: Edouard Molinaro
scenariusz Jean Halain, Jean Bernard-Luc
zdjęcia Marcel Grignon
muzyka Georges Delerue
na podstawie: sztuki Jeana Bernard-Luca
czas trwania: 77 minut


Louis de Funes: Hubert de Tartas
Bernard Alane: Paul Fournier
Olivier de Funčs: Didier de Tartas
Eliette Demay: Evelyne Cr??pin-Jaujard
Claude Gensac: Edm??e de Tartas
Martine Kelly: Sophie
Jacques Legras
Michael Lonsdale: prof. Loriebat
Olivier Mathot
Claude Pi??plu
Yves Vincent: Crepin-Jaujard
Pascal Mazzotti: Profesor Bibolini


Po ponad pół wieku zostaje odnaleziony w bryle lodu Hubert de Taras - uznany za zaginionego w katastrofie okretu. Lekarze podejmują się odmrożenia ofiary. Jednocześnie z obawy przed szokiem psychicznym związanym ze zmianami cywilizacyjnymi postanowiono odtworzyć w najbliższym otoczeniu ofiary warunki jakie ponowały przed laty.


L'Homme orchestre
Człowiek orkiestra


7,2/10 6,3/10


Produkcja: Francja, Włochy
Gatunek: Komedia
premiera:18 września 1970
Reżyseria: Serge Korber
Scenariusz: Serge Korber, Jean Halain


Louis de Funes - Pan ??douard "Evan Evans", dyrektor zespołu baletowego
Noëlle Adam - Françoise
Olivier De Funes ... Philippe Evans
Paul Pr??boist - Kierownik hotelu
Puck Adams - Lina



Evan Evans jest właścicielem zespołu tanecznego, a przy tym prawdziwym despotą. Wiele dziewcząt uważa, że w zespole panuje gorszy rygor niż w klasztorze. Jednakże pewnego dnia na świecie pojawia się dwoje nieślubnych dzieci. Podejrzenie pada na bratanka właściciela, a nawet na niego samego.



Audio : 59 MB, 102 Kbps, 48000 Hz, 2 kanał(y), 0x55 = MPEG Layer-3,
Video : 640 MB, 1090 Kbps, 25.0 fps, rozdz. 608*256 (2.21:1), XVID = XVID Mpeg-4,
Plik : 700 MB (700 MB), czas 1:22:05, rodzaj: AVI, 1 ścieżka(i) audio, jakość 50 %



La folie des grandeurs
Mania wielkości


7,7/10 7,3/10


Polski tytuł: Mania Wielkości
Oryginalny tytuł: La Folie des grandeurs
Produkcja: Francja, Hiszpania, Włochy, RFN
Gatunek: Komedia, Satyra
Data premiery: 1971-12-08 (Świat)
Reżyseria: G??rard Oury
Czas trwania: 108 min



Louis de Funčs: Don Salluste
Yves Montand: Blaze
Alice Sapritch: Dona Juana



Don Salluste, jest królewskim poborcą podatkowym. Wyjątkowo chciwym i skąpym. Jednak za jego skąpstwo i chciwość przyjdzie mu kiedyś zapłacić ...


Video
Format : MPEG-4 Visual
Format settings, BVOP : Yes
Format settings, QPel : No
Format settings, GMC : No warppoints
Format settings, Matrix : Default
Codec ID : XVID
Codec ID/Hint : XviD
Duration : 1h 43mn
Bit rate : 761 Kbps
Width : 512 pixels
Height : 272 pixels
Display aspect ratio : 1.882
Frame rate : 25.000 fps
Resolution : 24 bits
Scan type : Progressive
Bits/(Pixel*Frame) : 0.219
Stream size : 562 MiB (81%)

Audio
Format : MPEG Audio
Format version : Version 1
Format profile : Layer 3
Codec ID : 55
Codec ID/Hint : MP3
Duration : 1h 43mn
Bit rate mode : Variable
Bit rate : 169 Kbps
Channel(s) : 2 channels
Sampling rate : 48.0 KHz
Resolution : 16 bits
Video delay : 72ms
Stream size : 125 MiB (18%)
Alignment : Aligned on interleaves
Interleave, duration : 24 ms (0.60 video frame)
Interleave, preload duration : 514 ms
Writing library : LAME3.90a
Encoding settings : VBR (rh)


Sur un arbre perch??
Zawieszeni na drzewie

7,2/10 6,3/10


Produkcja: Francja
Gatunek: Komedia
premiera:14 kwietnia 1971
Reżyseria: Serge Korber
Scenariusz: Serge Korber, Jean Halain




Louis de Funes - Henri Roubier
Geraldine Chaplin - Mme Muller
Olivier De Funes - L'auto-stoppeur
Alice Sapritch - Lucienne Roubier
Paul Pr??boist - Le radio-reporter



Przedsiębiorca Henry Roubier, zajmuje się budowaniem autostrad. Pewnego dnia jadąc przez górskie drogi, bierze ze sobą autostopowiczów, niestety w wyniku wypadku wpadają w przepaść. Szczęściem w nieszczęściu jest to, że samochód zatrzymuje się na drzewie. Tymczasem zazdrosny mąż autostopowiczki, zaczyna podejrzewać zdradę, a konkurencja Roubiera zaciera ręce .



Audio : 64 MB, 104 Kbps, 48000 Hz, 2 kanał(y), 0x55 = MPEG Layer-3,
Video : 635 MB, 1022 Kbps, 25.0 fps, rozdz. 576*352 (16:9), XVID = XVID Mpeg-4,
Plik : 699 MB (699 MB), czas 1:26:53, rodzaj: AVI, 1 ścieżka(i) audio, jakość 47 %



Les aventures de Rabbi Jacob
Przygody Rabina Jakuba

7,4/10 7,4/10


Polski tytuł: Przygody Rabina Jakuba
Oryginalny tytuł: Les Aventures de Rabbi Jacob
Produkcja: Francja, Włochy
Gatunek: Komedia
Data premiery: 1973-10-18 (Świat)
Reżyseria: G??rard Oury
Scenariusz: G??rard Oury, Josy Eisenberg
Zdjęcia: Henri Decaë
Muzyka: Vladimir Cosma
Czas trwania: 92 min.


Louis de Funes - Victor Pivert, przemysłowiec
Suzy Delair - Germaine Pivert, dentystka, żona Victora
Marcel Dalio - Prawdziwy Rabin Jakub
Claude Giraud - Mohamed Larbi Slimane
Renzo Montagnani - Pułkownik Fares


Francuski przemysłowiec Victor Pivert, znany jest ze swego nieco wątpliwego stosunku do obcokrajowców. Szczególną niechęcią darzy Żydów. Kiedy nieoczekiwanie musi uciekać przed policją, przestępcami... oraz własną żoną, jak na ironię, przyjdzie mu ukrywać się przebranym za rabina. Wtedy także zmieni swoje poglądy.




Audio : 83 MB, 128 Kbps, 48000 Hz, 2 kanał(y), 0x55 = MPEG Layer-3,
Video : 615 MB, 943 Kbps, 25.0 fps, rozdz. 640*384 (16:9), XVID = XVID Mpeg-4,
Plik : 699 MB (699 MB), czas 1:31:11, rodzaj: AVI, 1 ścieżka(i) audio, jakość 54 %


L'Aile ou la cuisse
Skrzydełko czy nóżka

7,5/10 7,3/10


gatunek:Komedia
produkcja:Francja
premiera:27 października 1976 (świat)
reżyseria:Claude Zidi
scenariusz:Claude Zidi,Michel Fabre



Louis de Fun?s - Charles Duchemin
Coluche - Pierre Duchemin
Ann Zacharias - Marguerite, tymczasowa sekretarka
Julien Guiomar - Jean Tricatel
Claude Gensac - Marguerite, sekretarka Duchemina



60 letni Charles Duchemin (Louis De Funes) jest autorytetem w sprawach kuchni, wzbudza respekt wśród właścicieli eleganckich restauracji jak i zwykłych podrzędnych barów. Jego książki, audycje telewizyjne, eseje oraz przewodniki gastronomiczne przyniosły mu niekwestionowaną sławę, również Akademia Francuska zaproponowała mu członkostwo. Charles chce wybrać się na zasłużoną emeryturę i przekazać swoją spuściznę synowi, jednak Pierre ma inne aspiracje, jest członkiem jednego z zespołów cyrkowych i to jest jego pasją, oczywiście sławny ojciec nie ma o tym pojęcia. Jednak film jest nie tylko o tym... Głównym wrogiem Duchemina jest Jean Tricatel (Julien Guiomar), właściciel sieci barów typu fast-food. Tricatel chce zdobyć najnowsze wydanie przewodnika gastronomicznego Duchemina, a Duchemin chce znaleźć dowody przeciw "królowi fast-food'u", są mu one potrzebne, ponieważ oboje zostali zaproszeni do programu TV p.t. "Wszystkie chwyty dozwolone". Jednak wyprawa kończy się dla Charlesa tragicznie, nie dość, że odkrywa zainteresowania syna to na dodatek po posiłku w restauracji Tricatela traci smak!




Klik
Audio : 89 MB, 124 Kbps, 44100 Hz, 2 kanał(y), 0x55 = MPEG Layer-3,
Video : 584 MB, 811 Kbps, 25.0 fps, rozdz. 640*352 (16:9), DX50 = DivXNetworks Divx v5,
Plik : 674 MB (674 MB), czas 1:40:48, rodzaj: AVI, 1 ścieżka(i) audio, jakość 51 %



La Zizanie
Panowie dbajcie o żony

7,2/10 6,3/10


Produkcja: Francja
Gatunek: Komedia
premiera:16 marca 1978
Reżyseria: Claude Zidi
scenariusz:Claude Zidi,Pascal Jardin



Louis de Funes: Guillaume Daubray-Lacaze
Annie Girardot: Bernardette Daubray-Lacaze
Maurice Risch: Głupiec, podwładny Guillaume
Jean-Jacques Moreau: Brygadzista
Genevieve Fontanel: Pani Berger


Znany przedsiębiorca, produkujący odświeżacze powietrza, dostaje od Japończyków intratne zlecenie. Ma produkować więcej odświeżaczy, niżli jest w stanie wyrobić jego fabryka. Szybko więc przenosi produkcję do domu, ale jak na to zareaguje jego żona?


Audio : 72 MB, 109 Kbps, 48000 Hz, 2 kanał(y), 0x55 = MPEG Layer-3,
Video : 626 MB, 946 Kbps, 25.0 fps, rozdz. 640*272 (2.21:1), XVID = XVID Mpeg-4,
Plik : 699 MB (699 MB), czas 1:32:37, rodzaj: AVI, 1 ścieżka(i) audio, jakość 50 %


L'Avare
Skąpiec


7,3/10 6,6/10


Produkcja: Francja
Gatunek: Komedia
premiera:5 marca 1980
Reżyseria: Louis de Funes, Jean Girault
Scenariusz: Jean Girault, Louis de Funes



Louis de Funes - Harpagon
Frank David - Cl??ante
Herv?? Bellon - Val??re
Georges Audoubert - Anselme
Guy Grosso - Brindavoine


Stary Harpagon to straszny skąpiec. Codziennie nosi ten sam czarny kaftan, pomimo, że jest zniszczony. A jego niechęć do dawania datków na biednych, czy kościół jest wręcz legendarna. Jego jedyną troską jest codzienne oglądanie zakopanych w ogrodzie 10.000 skudów. Jednakże sądzi, że to za mało. Postanawia więc powydawać bogato swe dzieci. Nie liczy się zupełnie z ich własnymi planami życiowymi.


Klik
Audio : 107 MB, 128 Kbps, 44100 Hz, 2 kanał(y), 0x55 = MPE

Pobrano z TnT24.Info | Wstawil Zryty_TB
Dostępne napisy
Brak napisów
Szczegóły torrenta
Tracker http://94.228.192.98/announce
Multitracker [ Pokaż ]
Kategoria: » » » [Zgłoś błąd]
Dodane 03-10-2017
Podziękowali:
0 użytkowników 
Podziękuj!
Pokaż / Ukryj pliki:
Nazwa pliku Rozmiar
Le.Grand.Restaurant.1966.PL.DVDRip.XviD-KiCZ.avi 699.37 MB
Le.Petit.Baigneur.1967.PL.DVDRip.XviD-KiCZ.avi 699.07 MB
Le.Corniaud.1965.PL.DVDRip.XviD.CD2-KiCZ.avi 700.35 MB
Le.Corniaud.1965.PL.DVDRip.XviD.CD1-KiCZ.avi 699.66 MB
La.Zizanie.1978.PL.DVDRip.XviD-KiCZ.avi 699.56 MB
Le.Tatoue.1968.PL.DVDRip.XviD-KiCZ.avi 699.99 MB
Les.Aventures.De.Rabbi.Jacob.1973.PLDUB.DVDRip.XviD-KiCZ.avi 698.99 MB
Sur.Un.Arbre.Perche.1971.PL.DVDRip.XviD-KiCZ.avi 699.97 MB
Pouic.Pouic.1963.PL.DVDRip.XviD-KiCZ.avi 700.53 MB
Oscar.1967.PL.DVDRip.XviD-KiCZ.avi 699.34 MB
Les.Grandes.Vacances.1967.PL.DVDRip.XviD-KiCZ.avi 699.07 MB
La.Soupe.Aux.Choux.1981.PL.DVDRip.XviD-KiCZ.avi 699.36 MB
La.Grande.Vadrouille.1966.PL.DVDRip.XviD.CD2-KiCZ.avi 700.15 MB
L.Aile.Ou.La.Cuisse.1976.PL.DVDRip.XviD-KiCZ.avi 699.67 MB
Hibernatus.1969.PL.DVDRip.XviD-KiCZ.avi 699.35 MB
Filmy - TnT24.Info.URL 0.32 KB
Faites.Sauter.La.Banque.1963.PL.DVDRip.XviD-KiCZ.avi 700.01 MB
L.Avare.1980.PL.DVDRip.XviD.CD1-KiCZ.avi 700.04 MB
L.Avare.1980.PL.DVDRip.XviD.CD2-KiCZ.avi 699.99 MB
La.Grande.Vadrouille.1966.PL.DVDRip.XviD.CD1-KiCZ.avi 699.88 MB
La.Folie.Des.Grandeurs.1971.PL.DVDRip.XviD.CD2-KiCZ.avi 699.83 MB
La.Folie.Des.Grandeurs.1971.PL.DVDRip.XviD.CD1-KiCZ.avi 699.12 MB
L.Homme.Orchestre.1970.PL.DVDRip.XviD-KiCZ.avi 699.65 MB
Downloaded from TnTTorrenT.info.txt 4.21 KB
24 plików

<< Poprz.      Następna >>
1 - 2



oczus1 (1)
Proszę o seda plis
10/10/2019 14:38:55 # 0 0


mario537 (1)
Poprosze o seeda, dziękuje.
17/04/2019 18:08:33 # 1 0

1 - 2
<< Poprz.      Następna >>