Główna Torrenty Wstaw Wstaw Szybkie wstawianie Prośby Napisy Poradnik Załoga Forum
Enable / Włącz Javascript
 Widok 
 Kategorie 
 Nitro Torrent w sieci 
 Top 10 użytkowników 
 LA LA POLAND *2018* S02E01-02 [480P] [WEB-DL] [X264-666] [PL]

LA LA POLAND *2018* S02E01-02 [480P] [WEB-DL] [X264-666] [PL]
Kategoria: » » » »
Dodane: 09/01/2019
Rozmiar: 636.97 MB
Uploader: tomysparow559 (10)
seed(ów): 17
leecher(ów): 15
Pobrane: 116
Komentarzy: 0
Pobierz Torrent Pobierz Torrent
Pobierz [Magnet] Pobierz [Magnet]

Obserwuj
Raportuj
==================
...::: INFO :::...
==================

Kraj: Polska
Gatunek: Rozrywka
Czas trwania: 42 minut

==================
...::: OPIS :::...
==================

Zrealizowany metodą filmową cykl kabaretowo-komediowy. Absurdalna podróż w głąb krainy znanej jako La La Poland, z jej wszystkimi śmiesznostkami i powagą, grozą i urokiem, błazenadą i powabem, nonsensami i rozsądkiem? Wraz z bohaterami krótkich i humorystycznych filmów, scenek, ujęć, skeczy oraz shortów widzowie Dwójki przeniosą się do niezwykłego świata La La Poland. Utkną w poczekalni donikąd, pokłócą się przy tradycyjnym polskim stole czy usiądą za kółkiem obok typowego, polskiego kierowcy. La La Poland to światowe mocarstwo, a jego obywatele to naród predestynowany do szczególnych zadań, choć targany spiskami i wichrami historii. Dlatego warto przyjrzeć się bliżej obywatelom La La Poland ? jedynego kraju na ziemi, gdzie dwie, identyczne nuty potrafią brzmieć zupełnie inaczej

==============
...::: OBSADA :::...
==============

Iza Dąbrowska,
Paweł Koślik,
Sebastian Stankiewicz,
Olga Sarzyńska,
Wojciech Solarz,
Robert Majewski,
Michalina Sosna,
Mateusz Rusin,
Krzysztof Szczepaniak
Głosu lektora użycza Adam Ferency.

=======================
...::: DANE TECHNICZNE :::...
=======================

Format : Matroska
Format version : Version 4
File size : 311 MiB
Duration : 33 min 34 s
Overall bit rate : 1 294 kb/s
Encoded date : UTC 2019-01-01 10:38:38
Writing application : mkvmerge v9.0.1 ('Obstacles') 64bit
Writing library : libebml v1.3.3 + libmatroska v1.4.4

Video
ID : 1
Format : AVC
Format/INFO : Advanced Video Codec
Format profile : High@L3
Format settings : CABAC / 4 Ref Frames
Format settings, CABAC : Yes
Format settings, ReFrames : 4 frames
Codec ID : V_MPEG4/ISO/AVC
Duration : 33 min 34 s
Bit rate : 1 132 kb/s
Nominal bit rate : 1 200 kb/s
Width : 800 pixels
Height : 450 pixels
Display aspect ratio : 16:9
Frame rate mode : Constant
Frame rate : 25.000 FPS
Color space : YUV
Chroma subsampling : 4:2:0
Bit depth : 8 bits
Scan type : Progressive
Bits/(Pixel*Frame) : 0.126
Stream size : 272 MiB (87%)
Writing library : x264 core 129 r2245 bc13772
Encoding settings : cabac=1 / ref=3 / deblock=1:0:0 / analyse=0x3:0x113 / me=hex / subme=7 / psy=1 / psy_rd=1.00:0.00 / mixed_ref=1 / me_range=16 / chroma_me=1 / trellis=1 / 8x8dct=1 / cqm=0 / deadzone=21,11 / fast_pskip=1 / chroma_qp_offset=-2 / threads=36 / lookahead_threads=6 / sliced_threads=0 / nr=0 / decimate=1 / interlaced=0 / bluray_compat=0 / constrained_intra=0 / bframes=3 / b_pyramid=2 / b_adapt=1 / b_bias=0 / direct=1 / weightb=1 / open_gop=0 / weightp=2 / keyint=100 / keyint_min=51 / scenecut=0 / intra_refresh=0 / rc_lookahead=40 / rc=abr / mbtree=1 / bitrate=1200 / ratetol=1.0 / qcomp=0.60 / qpmin=0 / qpmax=42 / qpstep=4 / vbv_maxrate=1700 / vbv_bufsize=1700 / nal_hrd=none / ip_ratio=1.40 / aq=1:1.00
Default : Yes
Forced : No
Color range : Full

Audio
ID : 2
Format : AC-3
Format/INFO : Audio Coding 3
Commercial name : Dolby Digital
Codec ID : A_AC3
Duration : 33 min 34 s
Bit rate mode : Constant
Bit rate : 160 kb/s
Channel(s) : 2 channels
Channel layout : L R
Sampling rate : 48.0 kHz
Frame rate : 31.250 FPS (1536 SPF)
Bit depth : 16 bits
Compression mode : Lossy
Stream size : 38.4 MiB (12%)
Language : Polish
Service kind : Complete Main
Default : Yes
Forced : No
Dostępne napisy
Brak napisów
Szczegóły torrenta
Tracker udp://tracker.opentrackr.org:1337/announce
Multitracker [ Pokaż ]
Kategoria: » » » » [Zgłoś błąd]
Dodane 09-01-2019
Podziękowali:
0 użytkowników 
Podziękuj!
Pokaż / Ukryj pliki:
Nazwa pliku Rozmiar
FileTracker.pl.txt.txt 0.02 KB
! Chcesz mieć TO szybciej - zapraszamy-KLIK.url 0.11 KB
! Want YOU more -CLIK.url 0.11 KB
Zapraszamy-KLIK.url 0.11 KB
LoGo.png 202.81 KB
La.La.Poland.2018.S02E01.SPECiAL.Odcinek.swiateczny.POLiSH.480p.WEB-DL.x264-666.mkv 310.80 MB
La.La.Poland.2018.S02E02.SPECiAL.Odcinek.sylwestrowo-noworoczny.POLiSH.480p.WEB-DL.x264-666.mkv 325.97 MB
7 plików
Brak komentarzy...