Główna Torrenty Wstaw Wstaw Szybkie wstawianie Prośby Napisy Poradnik Załoga Forum
Enable / Włącz Javascript
 Widok 
 Kategorie 
 Nitro Torrent w sieci 
 Top 10 użytkowników 
 Chyłka - Zaginięcie S01E05 [720p.WEB-DL.H.264.AC3] [PL]

Chyłka - Zaginięcie S01E05 [720p.WEB-DL.H.264.AC3] [PL]
Kategoria: » » » »
Dodane: 09/01/2019
Rozmiar: 1.08 GB
Uploader: Lukarusi (1)
seed(ów): 0
leecher(ów): 0
Pobrane: 492
Komentarzy: 0
Pobierz Torrent Pobierz Torrent
Pobierz [Magnet] Pobierz [Magnet]

Obserwuj
Raportuj
Info

produkcja: PL
gatunek: Kryminał, Dramat, Thriller
reżyseria: Łukasz Palkowski
scenariusz: Justyna Stefaniak, Krzysztof Szpetmański, Michał Wawrzecki
zdjęcia: Mateusz Wichłacz
muzyka: Bartosz Chajdecki
czas trwania: ok. 42 min.

Opis

Główna bohaterka Joanna Chyłka jest zdolna, bezkompromisowa, odważna i niepokorna. W prawniczym świecie pełnym mężczyzn w niczym im nie ustępuje. Gdy trzyletnia Nikola Szlezyngier znika bez śladu, a policja nie znajduje dowodów wskazujących na porwanie, głównymi podejrzanymi stają się rodzice dziecka. To właśnie Chyłka i jej nowy aplikant Kordian Oryński podejmują się obrony małżeństwa. Wszystkie poszlaki wskazują jednak na winę Szlezyngierów. Czy prawnicy zdołają wspólnie doprowadzić sprawę do szczęśliwego finału?

Obsada

Magdalena Cielecka - Joanna Chyłka
Filip Pławiak - Kordian "Zordon" Oryński
Katarzyna Warnke - Angelika Szlezyngier
Michał Żurawski - Dawid Szlezyngier
Jacek Koman - Harry McVay
Szymon Bobrowski - Artur Żelazny
Piotr Stramowski - Adam Kosmowski
Piotr Żurawski - Kormak

Dane Techniczne

Format : Matroska
Format version : Version 4 / Version 2
File size : 1.08 GiB
Duration : 41 min 58 s
Overall bit rate mode : Variable
Overall bit rate : 3 677 kb/s
Encoded date : UTC 2019-01-09 16:53:49

Video
ID : 1
Format : AVC
Format/Info : Advanced Video Codec
Format profile : High@L3.1
Format settings : CABAC / 5 Ref Frames
Format settings, CABAC : Yes
Format settings, ReFrames : 5 frames
Codec ID : V_MPEG4/ISO/AVC
Duration : 41 min 58 s
Bit rate mode : Variable
Bit rate : 3 291 kb/s
Maximum bit rate : 4 500 kb/s
Width : 1 280 pixels
Height : 720 pixels
Display aspect ratio : 16:9
Frame rate mode : Constant
Frame rate : 25.000 FPS
Color space : YUV
Chroma subsampling : 4:2:0
Bit depth : 8 bits
Scan type : Progressive
Bits/(Pixel*Frame) : 0.143
Stream size : 988 MiB (90%)
Default : Yes
Forced : Yes
Color range : Limited
Color primaries : BT.709
Transfer characteristics : BT.709
Matrix coefficients : BT.709

Audio
ID : 2
Format : AC-3
Format/Info : Audio Coding 3
Codec ID : A_AC3
Duration : 41 min 58 s
Bit rate mode : Constant
Bit rate : 384 kb/s
Channel(s) : 2 channels
Channel positions : Front: L R
Sampling rate : 48.0 kHz
Frame rate : 31.250 FPS (1536 SPF)
Bit depth : 16 bits
Compression mode : Lossy
Stream size : 115 MiB (10%)
Language : Polish
Service kind : Complete Main
Default : Yes
Forced : Yes
Dostępne napisy
Brak napisów
Szczegóły torrenta
Tracker http://agusiq-torrents.pl:6969/announce
Multitracker [ Pokaż ]
Kategoria: » » » » [Zgłoś błąd]
Dodane 09-01-2019
Podziękowali:
2 użytkowników 
[ Pokaż ]
Podziękuj!
Pokaż / Ukryj pliki:
Nazwa pliku Rozmiar
Chyłka - Zaginięcie S01E05 [720p.WEB-DL.H.264.AC3] [PL].mkv 1.08 GB
1 plik
Brak komentarzy...