Główna Torrenty Wstaw Wstaw Szybkie wstawianie Prośby Napisy Poradnik Załoga Forum
Enable / Włącz Javascript
 Widok 
 Kategorie 
 Nitro Torrent w sieci 
 Top 10 użytkowników 
 BLONDYNKA S07E09-10 [720P] [WEB-DL] [X264-YL4] [PL]

BLONDYNKA S07E09-10 [720P] [WEB-DL] [X264-YL4] [PL]
Kategoria: » » » »
Dodane: 07/02/2019
Rozmiar: 2.08 GB
Uploader: tomysparow559 (10)
seed(ów): 6
leecher(ów): 11
Pobrane: 55
Komentarzy: 0
Pobierz Torrent Pobierz Torrent
Pobierz [Magnet] Pobierz [Magnet]

Obserwuj
Raportuj
==================
...::: INFO :::...
==================

Produkcja: Polska
Stacja TV: TVP1
Gatunek: Obyczajowy
Czas trwania odc: 45 min.
Reżyseria: Mirosław Gronowski
Scenariusz: Andrzej Mularczyk i Przemysław Nowakowski

==================
...::: OPIS :::...
==================

Tytułowa blondynka to Sylwia ? młoda lekarka-weterynarz z Warszawy, która postanawia wyjechać na wieś. Trafia do lecznicy gdzieś na wschodzie Polski i od razu zostaje wrzucona na głęboką wodę. Dla dziewczyny zaczyna się prawdziwa próba, musi nie tylko wykazać się swoimi zawodowymi umiejętnościami, ale także przekonać do siebie mieszkańców wsi Majaki. Praca wiejskiej pani weterynarz znacznie odbiega od dotychczasowych doświadczeń Sylwii i obfituje w niespodzianki np. poród krowy w czasie wiejskiego wesela. Jej pacjentami są teraz konie, świnie, kury, kozy...

==============
...::: OBSADA :::...
==============

Sylwia Kubus jako Natalia Rybicka
Grzegorz Małecki jako Dawid Springer
Ewa Konstancja Bułhak jako Komendant Zioło
Andrzej Grabowski jako Wójt Traczyk
Andrzej Zieliński jako Kapitan Drucki
Rafał Rutkowski jako Błażej Sikora
Tomasz Borkowski jako Arnold Zdebel "Manej"
Krzysztof Gosztyła jako Doktor Fus
Izabela Dąbrowska jako Jasiunia
Olga Sumska jako Oksana
Lesław Żurek jako Andrzej
Marta Ścisłowicz jako Majka
Magdalena Schejbal jako Jagna
Krzysztof Pluskota jako Auguścik
Katarzyna Ankudowicz jako Elvirka

=======================
...::: DANE TECHNICZNE :::...
=======================

Format : MPEG-4
Format profile : Base Media
Codec ID : isom (isom/iso2/avc1)
File size : 1.04 GiB
Duration : 45 min 10 s
Overall bit rate mode : Variable
Overall bit rate : 3 303 kb/s
Encoded date : UTC 2018-11-27 19:34:04
Tagged date : UTC 2018-11-27 19:34:04

Video
ID : 2
Format : AVC
Format/INFO : Advanced Video Codec
Format profile : High@L3.1
Format settings : CABAC / 4 Ref Frames
Format settings, CABAC : Yes
Format settings, ReFrames : 4 frames
Codec ID : avc1
Codec ID/INFO : Advanced Video Coding
Duration : 45 min 10 s
Bit rate : 3 125 kb/s
Nominal bit rate : 3 500 kb/s
Width : 1 280 pixels
Height : 720 pixels
Display aspect ratio : 16:9
Frame rate mode : Constant
Frame rate : 25.000 FPS
Color space : YUV
Chroma subsampling : 4:2:0
Bit depth : 8 bits
Scan type : Progressive
Bits/(Pixel*Frame) : 0.136
Stream size : 1 010 MiB (95%)
Writing library : x264 core 129 r2245 bc13772
Encoding settings : cabac=1 / ref=3 / deblock=1:0:0 / analyse=0x3:0x113 / me=hex / subme=7 / psy=1 / psy_rd=1.00:0.00 / mixed_ref=1 / me_range=16 / chroma_me=1 / trellis=1 / 8x8dct=1 / cqm=0 / deadzone=21,11 / fast_pskip=1 / chroma_qp_offset=-2 / threads=36 / lookahead_threads=6 / sliced_threads=0 / nr=0 / decimate=1 / interlaced=0 / bluray_compat=0 / constrained_intra=0 / bframes=3 / b_pyramid=2 / b_adapt=1 / b_bias=0 / direct=1 / weightb=1 / open_gop=0 / weightp=2 / keyint=100 / keyint_min=51 / scenecut=0 / intra_refresh=0 / rc_lookahead=40 / rc=abr / mbtree=1 / bitrate=3500 / ratetol=1.0 / qcomp=0.60 / qpmin=0 / qpmax=40 / qpstep=4 / vbv_maxrate=4000 / vbv_bufsize=4000 / nal_hrd=none / ip_ratio=1.40 / aq=1:1.00
Encoded date : UTC 2018-11-27 19:03:17
Tagged date : UTC 2018-11-27 19:33:57
Color range : Full
Codec configuration box : avcC

Audio
ID : 1
Format : AAC LC
Format/INFO : Advanced Audio Codec Low Complexity
Codec ID : mp4a-40-2
Duration : 45 min 10 s
Bit rate mode : Variable
Bit rate : 173 kb/s
Channel(s) : 2 channels
Channel layout : L R
Sampling rate : 44.1 kHz
Frame rate : 43.066 FPS (1024 SPF)
Compression mode : Lossy
Stream size : 55.7 MiB (5%)
Default : Yes
Alternate group : 1
Tagged date : UTC 2018-11-27 19:34:05
Dostępne napisy
Brak napisów
Szczegóły torrenta
Tracker udp://tracker.opentrackr.org:1337/announce
Multitracker [ Pokaż ]
Kategoria: » » » » [Zgłoś błąd]
Dodane 07-02-2019
Podziękowali:
0 użytkowników 
Podziękuj!
Pokaż / Ukryj pliki:
Nazwa pliku Rozmiar
FileTracker.pl.txt.txt 0.02 KB
! Chcesz mieć TO szybciej - zapraszamy-KLIK.url 0.11 KB
! Want YOU more -CLIK.url 0.11 KB
Zapraszamy-KLIK.url 0.11 KB
LoGo.png 202.81 KB
Blondynka.S07E09.PL.720p.WEB-DL.x264-YL4.mp4 1.04 GB
Blondynka.S07E10.PL.720p.WEB-DL.x264-YL4.mp4 1.05 GB
7 plików
Brak komentarzy...