Główna Torrenty Wstaw Wstaw Szybkie wstawianie Prośby Napisy Poradnik Załoga Forum
Enable / Włącz Javascript
 Widok 
 Kategorie 
 Nitro Torrent w sieci 
 Top 10 użytkowników 
 Rezydenci - The Resident *2018* S02E21-22 [480p] [iT] [WEB-DL.DD2.0] [XviD-Ralf] [Lektor PL]

Rezydenci - The Resident *2018* S02E21-22 [480p] [iT] [WEB-DL.DD2.0] [XviD-Ralf] [Lektor PL]
Kategoria: » » » »
Dodane: 11/05/2019
Rozmiar: 1.24 GB
Uploader: tomysparow559 (10)
seed(ów): 20
leecher(ów): 24
Pobrane: 120
Komentarzy: 1
Pobierz Torrent Pobierz Torrent
Pobierz [Magnet] Pobierz [Magnet]

Obserwuj
Raportuj
==================
...::: INFO :::...
==================

Ocena: IMDB - 7.2/10 (8.701) | Filmweb - 7.7/10 (859)
Produkcja: USA
Stacja TV: FOX
Gatunek: Dramat
Czas trwania: 44 min.
Premiera: 21.01.2018 r. - Świat

==================
...::: OPIS :::...
==================

Akcja chwalonego przez krytyków i docenionego przez międzynarodową widownię Rezydentów dzieje się w szpitalu Chastain Park Memorial Hospital w Atlancie. Na początku historii poznajemy młodego lekarza Devona Pravesha (Manish Dayal), który dopiero co rozpoczyna staż. Jego zwierzchnikiem zostaje dr Conrad Hawkins (Matt Czuchry) genialny, ale i buntowniczy rezydent trzeciego roku. Już w pierwszym odcinku idealistycznie nastawiony do zawodu Pravesh zderza się z trudnymi realiami medycznego świata. Okazuje się, że nie wszystko jest tak kolorowe jak sobie wyobrażał, a ratowanie ludzkiego życia zawsze łączy się z trudnymi decyzjami. Poza tym, nie za każdym razem kończy się też sukcesem.

==============
...::: OBSADA :::...
==============

Matt Czuchry jako dr Conrad Hawkins, starszy rezydent
Emily VanCamp jako Nicolette "Nic" Nevin, pielęgniarka
Manish Dayal jako dr Devon Pravesh
Shaunette Renée Wilson jako dr Mina Okafor
Bruce Greenwood jako dr Randolph Bell, szef oddziału
Moran Atias jako Renata Morali
Merrin Dungey jako Claire Thorpe
Melina Kanakaredes jako dr Lane Hunter

=======================
...::: DANE TECHNICZNE :::...
=======================

Format : AVI
Format/INFO : Audio Video Interleave
Format profile : OpenDML
Format settings : rec
File size : 643 MiB
Duration : 44 min 52 s
Overall bit rate : 2 003 kb/s
Writing application : AVI-Mux GUI 1.17.8.3, Feb 16 201019:42:50

Video
ID : 0
Format : MPEG-4 Visual
Format profile : Advanced Simple@L5
Format settings : BVOP2
Format settings, BVOP : 2
Format settings, QPel : No
Format settings, GMC : No warppoints
Format settings, Matrix : Default (H.263)
Codec ID : XVID
Codec ID/Hint : XviD
Duration : 44 min 52 s
Bit rate : 1 614 kb/s
Width : 720 pixels
Height : 400 pixels
Display aspect ratio : 16:9
Frame rate : 23.976 (24000/1001) FPS
Original frame rate : 23.976 (23976/1000) FPS
Color space : YUV
Chroma subsampling : 4:2:0
Bit depth : 8 bits
Scan type : Progressive
Compression mode : Lossy
Bits/(Pixel*Frame) : 0.234
Stream size : 518 MiB (81%)
Writing library : XviD 67

Audio
ID : 1
Format : AC-3
Format/INFO : Audio Coding 3
Commercial name : Dolby Digital
Codec ID : 2000
Duration : 44 min 52 s
Bit rate mode : Constant
Bit rate : 384 kb/s
Channel(s) : 2 channels
Channel layout : L R
Sampling rate : 48.0 kHz
Frame rate : 31.250 FPS (1536 SPF)
Bit depth : 16 bits
Compression mode : Lossy
Stream size : 123 MiB (19%)
Alignment : Aligned on interleaves
Interleave, duration : 64 ms (1.53 video frames)
Interleave, preload duration : 192 ms
Title : The.Resident.S02E03.Three.Words
Service kind : Complete Main
Dostępne napisy
Brak napisów
Szczegóły torrenta
Tracker udp://tracker.opentrackr.org:1337/announce
Multitracker [ Pokaż ]
Kategoria: » » » » [Zgłoś błąd]
Dodane 11-05-2019
Podziękowali:
4 użytkowników 
[ Pokaż ]
Podziękuj!
Pokaż / Ukryj pliki:
Nazwa pliku Rozmiar
FileTracker.pl.txt.txt 0.02 KB
! Chcesz mieć TO szybciej - zapraszamy-KLIK.url 0.11 KB
! Want YOU more -CLIK.url 0.11 KB
Zapraszamy-KLIK.url 0.11 KB
LoGo.png 202.81 KB
The.Resident.S02E21.Stuck.as.Foretold.PL.480p.WEB.DD2.0.XviD-Ralf.avi 634.10 MB
The.Resident.S02E22.Broker.and.Broker.PL.480p.WEB.DD2.0.XviD-Ralf.avi 635.60 MB
7 plików

<< Poprz.      Następna >>
1 - 1



izamariusz1 (1)
Poproszę O NASTĘPNY ODCINEK
15/05/2019 21:03:08 # 0 0

1 - 1
<< Poprz.      Następna >>