Główna Torrenty Wstaw Wstaw Szybkie wstawianie Prośby Napisy Poradnik Załoga Forum
Enable / Włącz Javascript
 Widok 
 Kategorie 
 Nitro Torrent w sieci 
 Top 10 użytkowników 
 John Wick 3 John Wick: Chapter 3 - Parabellum (2019) [720p] [Bluray X264] [EVO] [ENG] [Napisy PL]

John Wick 3 John Wick: Chapter 3 - Parabellum (2019) [720p] [Bluray X264] [EVO] [ENG] [Napisy PL]
Kategoria: » » »
Dodane: 16/08/2019
Rozmiar: 5.73 GB
Uploader: RIAS (1)
seed(ów): 36
leecher(ów): 22
Pobrane: 136
Komentarzy: 0
Pobierz Torrent Pobierz Torrent
Pobierz [Magnet] Pobierz [Magnet]

Obserwuj
Raportuj
Info

Produkcja: USA
Gatunek: Thriller, Akcja
Premiera: 17 maja 2019 (Polska), 15 maja 2019 (świat)
Reżyseria: Chad Stahelski
Scenariusz: Derek Kolstad, Shay Hatten

NAPISY

Code
Bułgarski,   Polski,   Czeski, Angielski


Opis

Niedościgniony zabójca i miłośnik psów John Wick wpada w śmiertelnie poważne kłopoty. Likwidując jednego z członków wszechpotężnej Gildii Zabójców, Wick staje się celem najlepszych i najbardziej bezlitosnych fachowców w branży. Za jego głowę zostaje wyznaczona nagroda, której nikt nie jest w stanie się oprzeć. Nie ma takiego miejsca na Ziemi, gdzie mógłby się skryć. Nie ma takiego twardziela, który stanąłby po jego stronie. Jego tropem rusza nawet tajemnicza piękność (Halle Berry), której boją się nawet umarli. Czyżby era Johna Wicka dobiegła końca?

Obsada

? Keanu Reeves .... John Wick
? Halle Berry .... Sofia
? Ian McShane .... Winston
? Laurence Fishburne .... Król Bowery
? Mark Dacascos .... Zero
? Asia Kate Dillon .... Rzeczniczka
? Lance Reddick .... Charon
? Tobias Segal .... Earl


Dane Techniczne

napisał:
General
Complete name : John.Wick.3.2019.720p.Bluray.X264-EVO.mkv
Format : Matroska
Format version : Version 4 / Version 2
File size : 5.73 GiB
Duration : 2h 11mn
Overall bit rate : 6 257 Kbps
Movie name : EVO
Encoded date : UTC 2019-08-14 10:32:28
Writing application : mkvmerge v9.9.0 ('Pick Up') 32bit
Writing library : libebml v1.3.4 + libmatroska v1.4.5

Video
ID : 1
Format : AVC
Format/Info : Advanced Video Codec
Format profile : High@L4.1
Format settings, CABAC : Yes
Format settings, ReFrames : 4 frames
Codec ID : V_MPEG4/ISO/AVC
Duration : 2h 11mn
Bit rate : 4 791 Kbps
Width : 1 280 pixels
Height : 536 pixels
Display aspect ratio : 2.40:1
Frame rate mode : Constant
Frame rate : 23.976 (24000/1001) fps
Color space : YUV
Chroma subsampling : 4:2:0
Bit depth : 8 bits
Scan type : Progressive
Bits/(Pixel*Frame) : 0.291
Stream size : 4.34 GiB (76%)
Writing library : x264 core 142 r2479 dd79a61
Encoding settings : cabac=1 / ref=1 / deblock=1:0:0 / analyse=0x3:0x3 / me=dia / subme=1 / psy=1 / psy_rd=1.00:0.00 / mixed_ref=0 / me_range=16 / chroma_me=1 / trellis=0 / 8x8dct=1 / cqm=0 / deadzone=21,11 / fast_pskip=1 / chroma_qp_offset=0 / threads=12 / lookahead_threads=2 / sliced_threads=0 / nr=0 / decimate=1 / interlaced=0 / bluray_compat=0 / constrained_intra=0 / bframes=3 / b_pyramid=2 / b_adapt=1 / b_bias=0 / direct=1 / weightb=1 / open_gop=0 / weightp=1 / keyint=240 / keyint_min=24 / scenecut=40 / intra_refresh=0 / rc_lookahead=0 / rc=abr / mbtree=0 / bitrate=4791 / ratetol=1.0 / qcomp=0.60 / qpmin=0 / qpmax=69 / qpstep=4 / vbv_maxrate=62500 / vbv_bufsize=78125 / nal_hrd=none / filler=0 / ip_ratio=1.40 / pb_ratio=1.30 / aq=1:1.00
Default : Yes
Forced : No
Color range : Limited
Color primaries : BT.709
Transfer characteristics : BT.709
Matrix coefficients : BT.709

Audio
ID : 2
Format : DTS
Format/Info : Digital Theater Systems
Mode : 16
Format settings, Endianness : Big
Codec ID : A_DTS
Duration : 2h 11mn
Bit rate mode : Constant
Bit rate : 1 509 Kbps
Channel(s) : 6 channels
Channel positions : Front: L C R, Side: L R, LFE
Sampling rate : 48.0 KHz
Frame rate : 93.750 fps (512 spf)
Bit depth : 24 bits
Compression mode : Lossy
Stream size : 1.38 GiB (24%)
Title : Surround
Language : English
Default : Yes
Forced : No

Text #1
ID : 3
Format : UTF-8
Codec ID : S_TEXT/UTF8
Codec ID/Info : UTF-8 Plain Text
Duration : 1h 59mn
Bit rate : 24 bps
Count of elements : 764
Stream size : 21.3 KiB (0%)
Title : English-Full
Language : English
Default : No
Forced : No

Text #2
ID : 4
Format : UTF-8
Codec ID : S_TEXT/UTF8
Codec ID/Info : UTF-8 Plain Text
Duration : 1h 34mn
Bit rate : 0 bps
Count of elements : 33
Stream size : 667 Bytes (0%)
Title : English-Forced
Language : English
Default : Yes
Forced : Yes

Text #3
ID : 5
Format : UTF-8
Codec ID : S_TEXT/UTF8
Codec ID/Info : UTF-8 Plain Text
Duration : 2h 1mn
Bit rate : 23 bps
Count of elements : 659
Stream size : 20.8 KiB (0%)
Language : Czech
Default : No
Forced : No

Text #4
ID : 6
Format : UTF-8
Codec ID : S_TEXT/UTF8
Codec ID/Info : UTF-8 Plain Text
Duration : 2h 0mn
Bit rate : 22 bps
Count of elements : 697
Stream size : 19.9 KiB (0%)
Language : Polish
Default : No
Forced : No

Text #5
ID : 7
Format : UTF-8
Codec ID : S_TEXT/UTF8
Codec ID/Info : UTF-8 Plain Text
Duration : 2h 1mn
Bit rate : 41 bps
Count of elements : 658
Stream size : 36.4 KiB (0%)
Language : Bulgarian
Default : No
Forced : No


Screenshot / Wideo

















Dostępne napisy
Brak napisów
Szczegóły torrenta
Tracker udp://tracker.opentrackr.org:1337/announce
Multitracker [ Pokaż ]
Kategoria: » » » [Zgłoś błąd]
Dodane 16-08-2019
Podziękowali:
0 użytkowników 
Podziękuj!
Pokaż / Ukryj pliki:
Nazwa pliku Rozmiar
John.Wick.3.2019.720p.Bluray.X264-EVO.mkv 5.73 GB
John.Wick.3.2019.720p.Bluray.X264-EVO.nfo 5.69 KB
2 plików
Brak komentarzy...