Główna Torrenty Wstaw Wstaw Szybkie wstawianie Prośby Napisy Poradnik Załoga Forum
Enable / Włącz Javascript
 Widok 
 Kategorie 
 Nitro Torrent w sieci 
 Top 10 użytkowników 
 Fauda (2019) S03E07-08 [1080p HDTV x264 - HebTV] [Hebrew, Arabic] [Napisy PL Translator]

Fauda (2019) S03E07-08 [1080p HDTV x264 - HebTV] [Hebrew, Arabic] [Napisy PL Translator]
Kategoria: » » » »
Dodane: 15/02/2020
Rozmiar: 5.10 GB
Uploader: elladajarek (1)
seed(ów): 3
leecher(ów): 6
Pobrane: 70
Komentarzy: 0
Pobierz Torrent Pobierz Torrent
Pobierz [Magnet] Pobierz [Magnet]

Obserwuj
Raportuj
Produkcja: Izrael
Gatunek: Thriller
Premiera: 26 December 2019
Creators: Avi Issacharoff, Lior Raz
Muzyka: Gilad Benamram
Zdjęcia: Nitai Netzer

Akcja serialu toczy się we współczesnym Izraelu i w Palestynie na tle konfliktu żydowsko-arabskiego.

Obsada
======

Lior Raz As Doron Kavillio
Shadi Mar?i As Walid El Abed
Laëtitia E?do As Dr. Shirin El Abed
Itzik Cohen As Gabi ?Captain Eyov?
Neta Garty As Gali Kavillio
Tsahi Halevi As Naor
Rona-Lee Shim?on As Nurit
Boaz Konforty As Avichay
Doron Ben-David As Hertzel ?Steve? Pinto
Shani Atias As Gali

Dane Techniczne
===============

Format : Matroska
Format version : Version 4
File size : 2.50 GiB
Duration : 45 min 34 s
Overall bit rate : 7 867 kb/s
Writing application : mkvmerge v43.0.0 ('The Quartermaster') 64-bit
Writing library : libebml v1.3.10 + libmatroska v1.5.2

Video
ID : 1
Format : AVC
Format/Info : Advanced Video Codec
Format profile : High@L4.1
Format settings : CABAC / 4 Ref Frames
Format settings, CABAC : Yes
Format settings, Reference fra : 4 frames
Codec ID : V_MPEG4/ISO/AVC
Duration : 45 min 34 s
Bit rate : 7 417 kb/s
Width : 1 920 pixels
Height : 1 080 pixels
Display aspect ratio : 16:9
Frame rate mode : Constant
Frame rate : 25.000 FPS
Color space : YUV
Chroma subsampling : 4:2:0
Bit depth : 8 bits
Scan type : Progressive
Bits/(Pixel*Frame) : 0.143
Stream size : 2.36 GiB (94%)
Writing library : x264
Default : Yes
Forced : No
Color range : Limited
Matrix coefficients : BT.709

Audio
ID : 2
Format : AC-3
Format/Info : Audio Coding 3
Commercial name : Dolby Digital
Codec ID : A_AC3
Duration : 45 min 33 s
Bit rate mode : Constant
Bit rate : 448 kb/s
Channel(s) : 6 channels
Channel layout : L R C LFE Ls Rs
Sampling rate : 48.0 kHz
Frame rate : 31.250 FPS (1536 SPF)
Bit depth : 16 bits
Compression mode : Lossy
Delay relative to video : 23 ms
Stream size : 146 MiB (6%)
Language : Hebrew
Service kind : Complete Main
Default : Yes
Forced : No
Dostępne napisy
Brak napisów
Szczegóły torrenta
Tracker udp://tracker.cyberia.is:6969/announce
Multitracker [ Pokaż ]
Kategoria: » » » » [Zgłoś błąd]
Dodane 15-02-2020
Podziękowali:
0 użytkowników 
Podziękuj!
Pokaż / Ukryj pliki:
Nazwa pliku Rozmiar
Fauda S03E08 1080p HDTV x264-HebTV.mkv 2.60 GB
Fauda S03E07 1080p HDTV x264-HebTV.srt 25.38 KB
Fauda S03E07 1080p HDTV x264-HebTV.mkv 2.50 GB
Fauda S03E08 1080p HDTV x264-HebTV.srt 30.94 KB
Russian E07.srt 32.18 KB
Russian E08.srt 39.00 KB
Fauda Season Pack 2 WEB-DL 1080p Multisub Torrent/Фауда Fauda פאודה Сезон 2 Серии 1-12 из 12 (Асаф Бернштейн Assaf Bernstein, Ротем Шамир Rotem Shamir) [2018, Израиль [rutracker-5826794].torrent 115.29 KB
7 plików
Brak komentarzy...