Główna Torrenty Wstaw Wstaw Szybkie wstawianie Prośby Napisy Poradnik Załoga Forum
Enable / Włącz Javascript
 Widok 
 Kategorie 
 Nitro Torrent w sieci 
 Top 10 użytkowników 
 Black Lightning [S03E01] [1080p] [NF] [WEB-DL] [X264-J] [Lektor PL]

Black Lightning [S03E01] [1080p] [NF] [WEB-DL] [X264-J] [Lektor PL]
Kategoria: » » » »
Dodane: 27/03/2020
Rozmiar: 989.87 MB
Uploader: Jordan83 (1)
seed(ów): 0
leecher(ów): 0
Pobrane: 87
Komentarzy: 0
Pobierz Torrent Pobierz Torrent
Pobierz [Magnet] Pobierz [Magnet]

Obserwuj
Raportuj


Info

Produkcja: USA
Gatunek: Akcja, Dramat, Sci-Fi
Reżyseria: Salim Akil
Stacja TV: The CW
Platforma: Netflix
Premiera: 7.10.2019


Opis

Serial Black Lightning będzie dotyczył postaci Jeffersona Pierce?a. Dokonał on wyboru: porzucił swój kostium i sekretną tożsamość przed wieloma laty, jednak z uwagi na córkę, będącą na bakier z prawem, i znakomicie rokującego ucznia, który został członkiem lokalnego gangu, powróci on, by walczyć z przestępczością jako samotny mściciel i legenda DC ? Black Lightning.

Obsada



Screenshot / Wideo



Dane Techniczne

Format                      : Matroska
Format version              : Version 4 / Version 2
File size                   : 990 MiB
Duration                    : 43 min 11 s
Overall bit rate mode       : Variable
Overall bit rate            : 3 204 kb/s
Encoded date                : UTC 2020-03-26 12:13:39
Writing application         : mkvmerge v44.0.0 ('Domino') 64-bit
Writing library             : libebml v1.3.10 + libmatroska v1.5.2

Video
ID                          : 1
Format                      : AVC
Format/Info                 : Advanced Video Codec
Format profile              : Main@L4
Format settings             : CABAC / 3 Ref Frames
Format settings, CABAC      : Yes
Format settings, ReFrames   : 3 frames
Codec ID                    : V_MPEG4/ISO/AVC
Duration                    : 43 min 11 s
Bit rate mode               : Variable
Bit rate                    : 2 610 kb/s
Maximum bit rate            : 3 915 kb/s
Width                       : 1 920 pixels
Height                      : 1 080 pixels
Display aspect ratio        : 16:9
Frame rate mode             : Constant
Frame rate                  : 23.976 (24000/1001) FPS
Color space                 : YUV
Chroma subsampling          : 4:2:0
Bit depth                   : 8 bits
Scan type                   : Progressive
Bits/(Pixel*Frame)          : 0.052
Stream size                 : 792 MiB (80%)
Writing library             : x264 core 148 r2717 0d2410d
Encoding settings           : cabac=1 / ref=3 / deblock=1:0:0 / analyse=0x1:0x111 / me=umh / subme=10 / psy=1 / psy_rd=1.00:0.00 / mixed_ref=1 / me_range=24 / chroma_me=1 / trellis=2 / 8x8dct=0 / cqm=0 / deadzone=21,11 / fast_pskip=1 / chroma_qp_offset=-2 / threads=6 / lookahead_threads=1 / sliced_threads=0 / nr=0 / decimate=1 / interlaced=0 / bluray_compat=0 / stitchable=1 / constrained_intra=0 / bframes=2 / b_pyramid=0 / b_adapt=2 / b_bias=0 / direct=3 / weightb=1 / open_gop=0 / weightp=2 / keyint=250 / keyint_min=23 / scenecut=0 / intra_refresh=0 / rc_lookahead=48 / rc=2pass / mbtree=1 / bitrate=2610 / ratetol=1.0 / qcomp=0.50 / qpmin=6 / qpmax=51 / qpstep=4 / cplxblur=20.0 / qblur=0.5 / vbv_maxrate=3915 / vbv_bufsize=5220 / nal_hrd=vbr / filler=0 / ip_ratio=1.40 / aq=1:1.00
Language                    : German
Default                     : Yes
Forced                      : No

Audio
ID                          : 2
Format                      : AC-3
Format/Info                 : Audio Coding 3
Codec ID                    : A_AC3
Duration                    : 43 min 11 s
Bit rate mode               : Constant
Bit rate                    : 640 kb/s
Channel(s)                  : 6 channels
Channel positions           : Front: L C R, Side: L R, LFE
Sampling rate               : 48.0 kHz
Frame rate                  : 31.250 FPS (1536 SPF)
Bit depth                   : 16 bits
Compression mode            : Lossy
Stream size                 : 198 MiB (20%)
Language                    : Polish
Service kind                : Complete Main
Default                     : Yes
Forced                      : No

Text
ID                          : 3
Format                      : UTF-8
Codec ID                    : S_TEXT/UTF8
Codec ID/Info               : UTF-8 Plain Text
Duration                    : 41 min 1 s
Bit rate                    : 0 b/s
Count of elements           : 6
Stream size                 : 161 Bytes (0%)
Language                    : Polish
Default                     : Yes
Forced                      : Yes



Dostępne napisy
Brak napisów
Szczegóły torrenta
Tracker udp://tracker.opentrackr.org:1337/announce
Multitracker [ Pokaż ]
Kategoria: » » » » [Zgłoś błąd]
Dodane 27-03-2020
Podziękowali:
1 użytkownik 
[ Pokaż ]
Podziękuj!
Pokaż / Ukryj pliki:
Nazwa pliku Rozmiar
Black.Lightning.2019.PL.S03E01.1080p.NF.WEB-DL.X264-J.mkv 989.87 MB
1 plik
Brak komentarzy...