Główna Torrenty Wstaw Wstaw Szybkie wstawianie Prośby Napisy Poradnik Załoga Forum
Enable / Włącz Javascript
 Widok 
 Kategorie 
 Nitro Torrent w sieci 
 Top 10 użytkowników 
 Gundala [2019] [720p] [BluRay] [DD5.1] [x264-FN] [Napisy PL]

Gundala [2019] [720p] [BluRay] [DD5.1] [x264-FN] [Napisy PL]
Kategoria: » » »
Ocena użytkowników
Video 8/10
Audio 8/10
Dodane: 28/06/2020
Rozmiar: 857.85 MB
Uploader: FilmNinja.ws (1)
seed(ów): 8
leecher(ów): 5
Pobrane: 54
Komentarzy: 1
Pobierz Torrent Pobierz Torrent
Pobierz [Magnet] Pobierz [Magnet]

Obserwuj
Raportuj
...( Info )...

Produkcja: Indonezja
Gatunek: Kryminał, Akcja
Premiera: 29 sierpnia 2019 (świat)
Reżyseria: Joko Anwar
Scenariusz: Joko Anwar

...( Opis )...

Bohaterem jest Sancaka, który żyje na ulicach po tym, jak porzucili go rodzice. Udaje mu się przeżyć, bo myśli tylko o swoim bezpieczeństwie. Kiedy stan miasta się pogarsza, a przestępcy opanowują ulice, Sancaka musi podjąć decyzje, czy nadal będzie myśleć tylko o sobie, czy stanie się bohaterem...

...( Dane Techniczne )...

Format                      : MPEG-4
Format profile              : Base Media / Version 2
Codec ID                    : mp42 (isom/iso2/avc1/mp41)
File size                   : 858 MiB
Duration                    : 2 h 0 min
Overall bit rate            : 998 kb/s

Video
ID                          : 1
Format                      : AVC
Format/Info                 : Advanced Video Codec
Format profile              : [email protected]
Format settings             : CABAC / 4 Ref Frames
Format settings, CABAC      : Yes
Format settings, Reference  : 4 frames
Codec ID                    : avc1
Codec ID/Info               : Advanced Video Coding
Duration                    : 2 h 0 min
Bit rate                    : 832 kb/s
Width                       : 1 280 pixels
Height                      : 536 pixels
Display aspect ratio        : 2.40:1
Frame rate mode             : Variable
Frame rate                  : 23.976 (24000/1001) FPS
Minimum frame rate          : 23.974 FPS
Maximum frame rate          : 23.981 FPS
Color space                 : YUV
Chroma subsampling          : 4:2:0
Bit depth                   : 8 bits
Scan type                   : Progressive
Bits/(Pixel*Frame)          : 0.051
Stream size                 : 714 MiB (83%)
Writing library             : x264 core 157 r2935 545de2f

Audio
ID                          : 2
Format                      : AAC LC
Format/Info                 : Advanced Audio Codec Low Complexity
Codec ID                    : mp4a-40-2
Duration                    : 2 h 0 min
Bit rate mode               : Constant
Bit rate                    : 160 kb/s
Channel(s)                  : 2 channels
Channel layout              : L R
Sampling rate               : 48.0 kHz
Frame rate                  : 46.875 FPS (1024 SPF)
Compression mode            : Lossy
Stream size                 : 138 MiB (16%)
Title                       : Stereo
Language                    : Indonesian
Default                     : Yes
Alternate group             : 1

WTOPiONE NAPiSY PL!!
Dostępne napisy
Brak napisów
Szczegóły torrenta
Tracker http://tracker.filmninja.ws:6969/announce
Multitracker [ Pokaż ]
Kategoria: » » » [Zgłoś błąd]
Dodane 28-06-2020
Podziękowali:
1 użytkownik 
[ Pokaż ]
Podziękuj!
Pokaż / Ukryj pliki:
Nazwa pliku Rozmiar
Gundala 2019 plsubbed 720p BluRay DD5.1 x264-FN.mp4 857.85 MB
pobrano z www.filmninja.ws.txt 0.06 KB
2 plików

<< Poprz.      Następna >>
1 - 1



user33480914 (1)
AUDIO 8
VIDEO 8
Dzięki za wstawkę
29/06/2020 18:26:06 # 0 0

1 - 1
<< Poprz.      Następna >>