Główna Torrenty Wstaw Wstaw Szybkie wstawianie Prośby Napisy Poradnik Załoga Forum
Enable / Włącz Javascript
 Widok 
 Kategorie 
 Nitro Torrent w sieci 
 Top 10 użytkowników 
 Dolina Krzemowa - Silicon Valley [S06E03-07] [FiNAL] [720p] [AMZN] [WEB-DL] [x264-666] [Lektor PL]

Dolina Krzemowa - Silicon Valley [S06E03-07] [FiNAL] [720p] [AMZN] [WEB-DL] [x264-666] [Lektor PL]
Kategoria: » » » »
Dodane: 15/12/2019
Rozmiar: 4.55 GB
Uploader: andrzej559 (10)
seed(ów): 0
leecher(ów): 0
Pobrane: 33
Komentarzy: 0
Pobierz Torrent Pobierz Torrent
Pobierz [Magnet] Pobierz [Magnet]

Obserwuj
Raportuj
==================
...::: INFO :::...
==================

Produkcja: USA
Stacja telewizyjna: HBO
Gatunek: Komedia
Czas trwania: 30 min.
Reżyseria: Mike Judge
Scenariusz: John Altschuler | Mike Judge
Twórcy: Dave Krinsky | John Altschuler | Mike Judge

==================
...::: OPIS :::...
==================

Richard zeznający przez Kongresem niczym Mark Zuckerberg, Gavin próbujący ratować podupadające Hooli i... Jared wpadający w morderczą furię. Popularność Pied Piper rośnie coraz szybciej i poważne zmiany widnieją na horyzoncie w "Dolinie Krzemowej", ale pewne rzeczy, tak jak wzajemne docinki Dinesha i Gilfoyle'a, pozostają niezmienne.

====================
...::: OBSADA :::...
====================

Thomas Middleditch .... Richard Hendricks
T.J. Miller .... Erlich Bachman
Kumail Nanjiani .... Dinesh Chugtai
Martin Starr .... Bertram Gilfoyle
Zach Woods .... Donald "Jared" Dunn
Amanda Crew .... Monica
Christopher Evan Welch .... Peter Gregory
Josh Brener .... Nelson "Big Head" Bighetti

=======================
...::: DANE TECHNICZNE :::...
=======================

Format : Matroska
Format version : Version 4
File size : 852 MiB
Duration : 31 min 57 s
Overall bit rate : 3 725 kb/s
Encoded date : UTC 2019-11-11 06:59:35 / UTC 2019-11-11T04:50:16Z
Writing application : mkvmerge v9.0.1 ('Obstacles') 64bit
Writing library : libebml v1.3.3 + libmatroska v1.4.4 / Lavf55.12.0

Video
ID : 1
Format : AVC
Format/INFO : Advanced Video Codec
Format profile : High@L4.1
Format settings : CABAC / 4 Ref Frames
Format settings, CABAC : Yes
Format settings, Reference fra : 4 frames
Codec ID : V_MPEG4/ISO/AVC
Duration : 31 min 57 s
Bit rate : 3 500 kb/s
Width : 1 280 pixels
Height : 720 pixels
Display aspect ratio : 16:9
Frame rate mode : Constant
Frame rate : 23.976 (24000/1001) FPS
Color space : YUV
Chroma subsampling : 4:2:0
Bit depth : 8 bits
Scan type : Progressive
Bits/(Pixel*Frame) : 0.158
Stream size : 776 MiB (91%)
Writing library : x264 core 142 r2479 dd79a61
Encoding settings : cabac=1 / ref=1 / deblock=1:-1:-1 / analyse=0x3:0x113 / me=hex / subme=2 / psy=1 / psy_rd=1.00:0.15 / mixed_ref=0 / me_range=16 / chroma_me=1 / trellis=0 / 8x8dct=1 / cqm=0 / deadzone=21,11 / fast_pskip=1 / chroma_qp_offset=0 / threads=12 / lookahead_threads=4 / sliced_threads=0 / nr=0 / decimate=1 / interlaced=0 / bluray_compat=0 / constrained_intra=0 / bframes=3 / b_pyramid=2 / b_adapt=1 / b_bias=0 / direct=1 / weightb=1 / open_gop=0 / weightp=1 / keyint=240 / keyint_min=24 / scenecut=40 / intra_refresh=0 / rc_lookahead=10 / rc=abr / mbtree=1 / bitrate=3500 / ratetol=1.0 / qcomp=0.60 / qpmin=0 / qpmax=69 / qpstep=4 / vbv_maxrate=62500 / vbv_bufsize=78125 / nal_hrd=none / filler=0 / ip_ratio=1.40 / aq=1:1.00
Default : Yes
Forced : No
Color range : Limited
Color primaries : BT.709
Transfer characteristics : BT.709
Matrix coefficients : BT.709
Statistics Tags Issue : mkvmerge v9.0.1 ('Obstacles') 64bit 2019-11-11 06:59:35 / mkvmerge v9.0.1 ('Obstacles') 64bit 2019-11-11 06:59:35 / UTC 2019-11-11T04:50:16Z
FromStats_BitRate : 3467410
FromStats_Duration : 00:31:57.583000000
FromStats_FrameCount : 45976
FromStats_StreamSize : 831130934

Audio
ID : 2
Format : AC-3
Format/INFO : Audio Coding 3
Commercial name : Dolby Digital
Codec ID : A_AC3
Duration : 31 min 57 s
Bit rate mode : Constant
Bit rate : 256 kb/s
Channel(s) : 2 channels
Channel layout : L R
Sampling rate : 48.0 kHz
Frame rate : 31.250 FPS (1536 SPF)
Bit depth : 16 bits
Compression mode : Lossy
Delay relative to video : -83 ms
Stream size : 58.5 MiB (7%)
Language : Polish
Service kind : Complete Main
Default : Yes
Forced : No
Statistics Tags Issue : mkvmerge v9.0.1 ('Obstacles') 64bit 2019-11-11 06:59:35 / mkvmerge v9.0.1 ('Obstacles') 64bit 2019-11-11 06:59:35 / UTC 2019-11-11T04:50:16Z
FromStats_BitRate : 256000
FromStats_Duration : 00:31:57.632000000
FromStats_FrameCount : 59926
FromStats_StreamSize : 61364224
Dostępne napisy
Brak napisów
Szczegóły torrenta
Tracker udp://tracker.opentrackr.org:1337/announce
Multitracker [ Pokaż ]
Kategoria: » » » » [Zgłoś błąd]
Dodane 15-12-2019
Podziękowali:
0 użytkowników 
Podziękuj!
Pokaż / Ukryj pliki:
Nazwa pliku Rozmiar
FileTracker.pl.txt.txt 0.02 KB
! Chcesz mieć TO szybciej - zapraszamy-KLIK.url 0.11 KB
! Want YOU more -CLIK.url 0.11 KB
Zapraszamy-KLIK.url 0.11 KB
LoGo.png 202.81 KB
Silicon.Valley.S06E06.RussFest.PL.720p.AMZN.WEB-DL.x264-666.mkv 782.96 MB
Silicon.Valley.S06E04.Maximizing.Alphaness.PL.720p.AMZN.WEB-DL.x264-666.mkv 847.62 MB
Silicon.Valley.S06E03.Hooli.Smokes.PL.720p.AMZN.WEB-DL.x264-666.mkv 851.56 MB
Silicon.Valley.S06E05.Tethics.PL.720p.AMZN.WEB-DL.x264-666.mkv 1.01 GB
Silicon.Valley.S06E07.FiNAL.Exit.Event.PL.720p.AMZN.WEB-DL.x264-666.mkv 1.12 GB
10 plików
Brak komentarzy...