Główna Torrenty Wstaw Wstaw Szybkie wstawianie Prośby Napisy Poradnik Załoga Forum
Enable / Włącz Javascript
 Widok 
 Kategorie 
 Nitro Torrent w sieci 
 Top 10 użytkowników 
 LG Demo 3D (march 2012)(48FPS)[mini-HD.1080p.3D.Half.Over-Under.AC3.BluRay.x264-LEON 345]

LG Demo 3D (march 2012)(48FPS)[mini-HD.1080p.3D.Half.Over-Under.AC3.BluRay.x264-LEON 345]
Kategoria: » » »
Dodane: 03/10/2017
Rozmiar: 3.96 GB
Uploader: SYSTEM-AURY (1)
seed(ów): 0
leecher(ów): 0
Pobrane: 31
Komentarzy: 0
Pobierz Torrent Pobierz Torrent
Pobierz [Magnet] Pobierz [Magnet]

Obserwuj
Raportuj
LG Demo 3D (march 2012) Half.Over-Under.1080p.BDRip - Leon 345
==============================================
!!!!!!!!!!!!!48 FPS !!!!!!!!!!!!!!!!!!!!!!!!!
==============================================
Film w wersji 3D Over-Under
Do odtworzenia filmu WYMAGANY odpowiedni sprzęt (TV 3D).

Kopia mini-HD 1080p = tylko 3,96 GB

Rok: 2012
Kraj: Korea
Gatunek: Demonstracja

Zawartość:
1. Super Junior - Mr. Simple (3:20)
2. World Cities - Paris (3:49)
3. Sports, Feel The Moments (3:53)
4. G.NA - Top Girl (4:00)
5. Summer Vacation (2:47)
6. Flying Steps (2:48)
7. Air (3:52)
8. World Of Warcraft (2:46)
9. World Cities - Barcelona (2:45)
10. Sports Highlight (2:16)
11. Shark (2:11)

General

Format : Matroska
Format version : Version 4 / Version 2
File size : 3.96 GiB
Duration : 34mn 25s
Overall bit rate : 16.5 Mbps
Movie name : LG.Demo.2012.3D.HOU.BDRip(48FPS).Leon345
Encoded date : UTC 2015-09-23 09:36:41
Writing application : mkvmerge v8.3.0 ('Over the Horizon') 64bit
Writing library : libebml v1.3.1 + libmatroska v1.4.2

Video
ID : 1
Format : AVC
Format/Info : Advanced Video Codec
Format profile : High@L4.1
Format settings, CABAC : Yes
Format settings, ReFrames : 4 frames
Codec ID : V_MPEG4/ISO/AVC
Duration : 34mn 25s
Bit rate : 16.0 Mbps
Width : 1 920 pixels
Height : 1 080 pixels
Display aspect ratio : 16:9 (1.78:1)
Frame rate mode : Constant
Frame rate : 47.923 fps
Original frame rate : 47.952 fps
Color space : YUV
Chroma subsampling : 4:2:0
Bit depth : 8 bits
Scan type : Progressive
Stream size : 3.78 GiB (95%)
Writing library : x264
Encoding settings : cabac=1 / ref=4 / deblock=1:-1:-1 / rc=2pass
Default : Yes
Forced : No

Audio
ID : 2
Format : AC-3
Format/Info : Audio Coding 3
Mode extension : CM (complete main)
Format settings, Endianness : Big
Codec ID : A_AC3
Duration : 34mn 25s
Bit rate mode : Constant
Bit rate : 448 Kbps
Channel(s) : 6 channels
Channel positions : Front: L C R, Side: L R, LFE
Sampling rate : 48.0 KHz
Bit depth : 16 bits
Compression mode : Lossy
Stream size : 110 MiB (3%)
Title : AC3 5.1
Default : Yes
Forced : No

Menu
00:00:00.000 : :1. Super Junior - Mr. Simple
00:03:19.000 : :2. World Cities - Paris
00:07:07.000 : :3. Sports, Feel the Moments
00:11:01.000 : :4. G. Na - Top Girl
00:15:00.000 : :5. Summer Vacation
00:17:47.000 : :6. Flying Steps
00:20:36.000 : :7. Air
00:24:28.000 : :8. World of Warcraft
00:27:14.000 : :9. Worlds Cities "Barselona"
00:29:59.000 : :10. Sports Highlight
00:32:15.000 : :12. Shark

Source :
A/V- LG 2012 3D Contents (Mar 2012) BD3D
===============================================================
UWAGA!!!!!!Tak dla jasności gdyby komuś wpadło coś "dziwnego" do głowy.
Wstawiam na prośbę.48 FPS uzyskane metodą interpolacji klatek(dodaniem
klatek pośrednich)znaczy że orginalnie tak nie było !!!!!!!!!!
Teraz wiecie :) !!!!!!!!!!!!Kto chce zapraszam.
===============================================================

Dostępne napisy
Brak napisów
Szczegóły torrenta
Tracker http://tracker.torrenty.org:6969/announce
Multitracker [ Pokaż ]
Kategoria: » » » [Zgłoś błąd]
Dodane 03-10-2017
Podziękowali:
0 użytkowników 
Podziękuj!
Pokaż / Ukryj pliki:
Nazwa pliku Rozmiar
LG.Demo.2012.3D.HOU.BDRip(48FPS).Leon345.mkv 3.96 GB
LG.Demo.3D(48FPS).jpg 151.44 KB
2 plików
Brak komentarzy...