Główna Torrenty Wstaw Wstaw Szybkie wstawianie Prośby Napisy Poradnik Załoga Forum
Enable / Włącz Javascript
 Widok 
 Kategorie 
 Nitro Torrent w sieci 
 Top 10 użytkowników 
 Teenage Mutant Ninja Turtles Out of the Shadows [3D] *2016* [1080p] [BluRay.x264-THUGLiNE] [ENG]

Teenage Mutant Ninja Turtles Out of the Shadows [3D] *2016* [1080p] [BluRay.x264-THUGLiNE] [ENG]
Kategoria: » » »
Dodane: 03/10/2017
Rozmiar: 7.66 GB
Uploader: tomysparow559 (10)
seed(ów): 0
leecher(ów): 0
Pobrane: 3
Komentarzy: 0
Pobierz Torrent Pobierz Torrent
Pobierz [Magnet] Pobierz [Magnet]

Obserwuj
Raportuj
...( Info )...

Produkcja: USA
Gatunek: Komedia, Akcja, Sci-Fi
Premiera: 1 czerwca 2016 (Polska), 30 maja 2016 (świat)
Reżyseria: Dave Green
Scenariusz: Josh Appelbaum, André Nemec

...( Opis )...

Oparta na popularnej serii o wojowniczych żółwiach ninja kontynuacja wielkiego przeboju kinowego z 2014 r. I tym razem czterech wojowniczych śmiałków stanie w obronie zagrożonego miasta. Donatello, Michaelangelo, Raphael i Splinter będą musieli zmierzyć się z niebezpieczeństwem, o jakim nawet nie śnili.

...( Obsada )...

? Megan Fox .... April O`Neil
? Will Arnett .... Vernon Fenwick
? Laura Linney .... Szefowa Vincent
? Stephen Amell .... Casey Jones
? Noel Fisher .... Michelangelo
? Jeremy Howard .... Donatello
? Pete Ploszek .... Leonardo
? Alan Ritchson .... Raphael

...( Dane Techniczne )...

Video
ID : 1
Format : AVC
Format/Info : Advanced Video Codec
Format profile : High@L4.1
MultiView_Count : 2
MultiView_Layout : Side by Side (left eye first)
Format settings, CABAC : Yes
Format settings, ReFrames : 5 frames
Codec ID : V_MPEG4/ISO/AVC
Duration : 1h 52mn
Bit rate : 9 125 Kbps
Width : 1 920 pixels
Height : 800 pixels
Display aspect ratio : 2.40:1
Frame rate mode : Constant
Frame rate : 23.976 fps
Color space : YUV
Chroma subsampling : 4:2:0
Bit depth : 8 bits
Scan type : Progressive
Bits/(Pixel*Frame) : 0.248
Stream size : 7.15 GiB (93%)
Writing library : x264 core 148 r2705 3f5ed56
Encoding settings : cabac=1 / ref=5 / deblock=1:-1:-1 / analyse=0x3:0x133 / me=umh / subme=8 / psy=1 / psy_rd=1.00:0.15 / mixed_ref=1 / me_range=16 / chroma_me=1 / trellis=1 / 8x8dct=1 / cqm=0 / deadzone=21,11 / fast_pskip=0 / chroma_qp_offset=-3 / threads=18 / lookahead_threads=3 / sliced_threads=0 / nr=0 / decimate=1 / interlaced=0 / bluray_compat=0 / constrained_intra=0 / bframes=3 / b_pyramid=2 / b_adapt=2 / b_bias=0 / direct=3 / weightb=1 / open_gop=0 / weightp=2 / keyint=240 / keyint_min=24 / scenecut=40 / intra_refresh=0 / rc_lookahead=50 / rc=2pass / mbtree=1 / bitrate=9125 / ratetol=1.0 / qcomp=0.60 / qpmin=0 / qpmax=69 / qpstep=4 / cplxblur=20.0 / qblur=0.5 / ip_ratio=1.40 / aq=1:1.00
Default : Yes
Forced : No

Audio
ID : 2
Format : AC-3
Format/Info : Audio Coding 3
Mode extension : CM (complete main)
Format settings, Endianness : Big
Codec ID : A_AC3
Duration : 1h 52mn
Bit rate mode : Constant
Bit rate : 640 Kbps
Channel(s) : 6 channels
Channel positions : Front: L C R, Side: L R, LFE
Sampling rate : 48.0 KHz
Frame rate : 31.250 fps (1536 spf)
Compression mode : Lossy
Stream size : 513 MiB (7%)
Language : English
Default : Yes
Forced : No

Torrent downloaded from https://rarbg.to
Dostępne napisy
Brak napisów
Szczegóły torrenta
Tracker http://tracker.trackerfix.com:80/announce
Multitracker [ Pokaż ]
Kategoria: » » » [Zgłoś błąd]
Dodane 03-10-2017
Podziękowali:
0 użytkowników 
Podziękuj!
Pokaż / Ukryj pliki:
Nazwa pliku Rozmiar
RARBG.com.txt 0.03 KB
Subs/tl-tmntoots.3d-1080p.idx 67.31 KB
Subs/tl-tmntoots.3d-1080p.sub 9.23 MB
tl-tmntoots.3d-1080p.jpg 5.67 KB
tl-tmntoots.3d-1080p.mkv 7.65 GB
tl-tmntoots.3d-1080p.nfo 8.76 KB
6 plików
Brak komentarzy...