Główna Torrenty Wstaw Wstaw Szybkie wstawianie Prośby Napisy Poradnik Załoga Forum
Enable / Włącz Javascript
 Widok 
 Kategorie 
 Nitro Torrent w sieci 
 Top 10 użytkowników 
 OBECNOŚĆ 3 NA ROZKAZ DIABŁA - The Conjuring The Devil Made Me Do It (2021) [480p] [WEB-DL] [AVC] [AC-3] [Napisy PL]

OBECNOŚĆ 3 NA ROZKAZ DIABŁA - The Conjuring The Devil Made Me Do It (2021) [480p] [WEB-DL] [AVC] [AC-3] [Napisy PL] Dla Nitro.To
Kategoria: » » »
Ocena użytkowników
Video 7/10
Audio 7/10
Dodane: 07/06/2021
Rozmiar: 1.02 GB
Uploader: januszek1990 (1)
seed(ów): 21
leecher(ów): 14
Pobrane: 567
Komentarzy: 10
Pobierz Torrent Pobierz Torrent
Pobierz [Magnet] Pobierz [Magnet]

Obserwuj
Raportuj
Inforeżyseria: Michael Chaves
scenariusz: David Leslie Johnson-McGoldrick
gatunek: Horror
produkcja: USA
premiera: 11 czerwca 2021 (Polska)
OpisRok 1981. Małżeństwo Warren bada sprawę mężczyzny oskarżonego o morderstwo. Sprawca jednak utrzymuje, że za zbrodnie odpowiedzialny jest potężny demon, władający jego ciałem.
Dane Techniczne
Video
ID                          : 1
Format                      : AVC
Format/Info                 : Advanced Video Codec
Format profile              : Baseline@L3
Format settings             : 2 Ref Frames
Format settings, CABAC      : No
Format settings, Reference  : 2 frames
Format settings, GOP        : M=1, N=50
Codec ID                    : avc1
Codec ID/Info               : Advanced Video Coding
Duration                    : 1 h 51 min
Bit rate                    : 1 200 kb/s
Width                       : 854 pixels
Height                      : 480 pixels
Display aspect ratio        : 16:9
Frame rate mode             : Constant
Frame rate                  : 23.976 (24000/1001) FPS
Color space                 : YUV
Chroma subsampling          : 4:2:0
Bit depth                   : 8 bits
Scan type                   : Progressive
Bits/(Pixel*Frame)          : 0.122
Stream size                 : 943 MiB (90%)
Writing library             : x264 core 160 r3000 33f9e14

Audio
ID                          : 2
Format                      : AAC LC
Format/Info                 : Advanced Audio Codec Low Complexity
Codec ID                    : mp4a-40-2
Duration                    : 1 h 51 min
Bit rate mode               : Constant
Bit rate                    : 128 kb/s
Channel(s)                  : 2 channels
Channel layout              : L R
Sampling rate               : 44.1 kHz
Frame rate                  : 43.066 FPS (1024 SPF)
Compression mode            : Lossy
Stream size                 : 103 MiB (10%)
Default                     : Yes
Alternate group             : 1

Specjalnie dla wybrednych użytkowników jak "bambus370 i masti1986 info napisy tłumaczone automatycznie przez bota google
Dostępne napisy
Brak napisów
Szczegóły torrenta
Tracker udp://p4p.arenabg.ch:1337/announce
Multitracker [ Pokaż ]
Kategoria: » » » [Zgłoś błąd]
Dodane 07-06-2021
Podziękowali:
3 użytkowników 
[ Pokaż ]
Podziękuj!
Pokaż / Ukryj pliki:
Nazwa pliku Rozmiar
Downloaded from Nitro.To.txt 0.00 KB
OBECNOŚĆ 3 NA ROZKAZ DIABŁA - The Conjuring The Devil Made Me Do It (2021) [720p] [WEB-DL] [AVC].mp4 1.02 GB
2 plików

<< Poprz.      Następna >>
1 - 10



Sito76 (1)
Dziękuję
10/06/2021 22:12:03 # 1 0


bambus370 (4)
Taki naród, wiesz, lubią ludzie marudzić zmieniłeś info o translatorze, teraz jest ostrzeżenie i wiadomo z czym to jeść i czy w ogóle zaczynać.
09/06/2021 22:51:40 # 1 1


Mr.Boss (12)
@januszek1990: zawsze będą niezadowoleni, następnym razem dopisz ze napisy z tłumacza i będą siedzieć cicho, masz 400 pobrań więc luzik
09/06/2021 15:21:38 # 2 2


januszek1990 (1)
Możecie zawsze kupić film nikt wam nie karze pobierać
09/06/2021 14:31:41 # 1 0


januszek1990 (1)
@bambus370: TO napisz napisy.
09/06/2021 14:30:53 # 0 0


masti1986 (1)
@bambus370: Zgadzam się z tobą nie da się to oglądać nie rozumiem ludzi którzy oglądają film z takimi napisami
09/06/2021 01:02:09 # 1 0
masti1986 (1)
09/06/2021 01:01:18
AUDIO 7
VIDEO 7


bambus370 (4)
Co z tego jak to znowu translator. Myślałem że to już wstawka z dopieszczonymi napisami. W innej ktoś ostrzegał.
Wystarczy tłumaczenie tytułu: "Czuwając pod wzięcie diabeł". Po 20 min podziękowałem. Bez sensu psuć sobie film.
08/06/2021 17:29:15 # 1 0


januszek1990 (1)
@TonyMontana999: No trudno jak same pijawy są. Ja już wysłałem 50gb
08/06/2021 04:20:13 # 0 1


TonyMontana999 (3)
dawać dawać gazu bo wieczór nadchodzi a film leci jak krew z nosa
07/06/2021 19:57:31 # 0 1

1 - 10
<< Poprz.      Następna >>