Główna Torrenty Wstaw Wstaw Szybkie wstawianie Prośby Napisy Poradnik Załoga Forum
Enable / Włącz Javascript
 Widok 
 Kategorie 
 Nitro Torrent w sieci 
 Top 10 użytkowników 
 Hawkeye S01E01 [WEBRip.x264-ION10] [ENG] [Napisy PL]

Hawkeye S01E01 [WEBRip.x264-ION10] [ENG] [Napisy PL]
Kategoria: » » » »
Ocena użytkowników
Video 10/10
Audio 10/10
Dodane: 24/11/2021
Rozmiar: 447.28 MB
Uploader: SHOW_TnT (10)
seed(ów): 3441
leecher(ów): 1783
Pobrane: 1137
Komentarzy: 2
Pobierz Torrent Pobierz Torrent
Pobierz [Magnet] Pobierz [Magnet]

Obserwuj
Raportuj
Info
Produkcja: USA
Gatunek: Akcja, Sci-Fi
Premiera: 24 listopada 2021 (Świat)
Twórcy: Jonathan Igla
Reżyseria: Bert & Bertie, Rhys Thomas
Scenariusz: Jonathan Igla, Elisa Climent, Katie Mathewson, Tanner Bean
Zdjęcia: Eric Steelberg
https://www.imdb.com/title/tt10160804/
https://www.thetvdb.com/series/marvels-hawkeye
https://www.filmweb.pl/serial/Hawkeye-2021-833975



Opis
Były Avenger Clint Barton, znany również jako Hawkeye, ma pozornie prostą misję w Nowym Jorku po katastrofie: wrócić do swojej rodziny na Boże Narodzenie. Ale kiedy pojawia się zagrożenie z jego przeszłości, Hawkeye niechętnie łączy siły z Kate Bishop, 22-letnią wykwalifikowaną łuczniczką i jego największą fanką, aby rozwikłać kryminalny spisek.


Obsada


Jeremy Renner .... Clint Barton / Hawkeye
Hailee Steinfeld .... Kate Bishop
Vera Farmiga .... Eleanor Bishop
Fra Fee .... Kazi
Tony Dalton .... Jack Duquesne / Swordsman
Alaqua Cox .... Maya Lopez
Piotr Adamczyk .... Tomas
Brian d'Arcy James .... Derek Bishop

Dane Techniczne
MediaInfo  
Video
ID : 1
Format : AVC
Format/Info : Advanced Video Codec
Format profile : High@L3.1
Format settings : CABAC / 5 Ref Frames
Format settings, CABAC : Yes
Format settings, Reference frames : 5 frames
Codec ID : avc1
Codec ID/Info : Advanced Video Coding
Duration : 47 min 21 s
Bit rate : 1 100 kb/s
Width : 720 pixels
Height : 400 pixels
Display aspect ratio : 16:9
Frame rate mode : Constant
Frame rate : 24.000 FPS
Color space : YUV
Chroma subsampling : 4:2:0
Bit depth : 8 bits
Scan type : Progressive
Bits/(Pixel*Frame) : 0.159
Stream size : 358 MiB (80%)
Title : RARBG - Hawkeye.S01E01.WEBRip.x264-ION10
Writing library : x264 core 152 r2851M ba24899
Encoding settings : cabac=1 / ref=5 / deblock=1:-1:-1 / analyse=0x3:0x113 / me=umh / subme=9 / psy=1 / psy_rd=1.00:0.15 / mixed_ref=1 / me_range=16 / chroma_me=1 / trellis=2 / 8x8dct=1 / cqm=0 / deadzone=21,11 / fast_pskip=1 / chroma_qp_offset=-3 / threads=12 / lookahead_threads=1 / sliced_threads=0 / nr=0 / decimate=1 / interlaced=0 / bluray_compat=0 / constrained_intra=0 / bframes=3 / b_pyramid=2 / b_adapt=2 / b_bias=0 / direct=3 / weightb=1 / open_gop=0 / weightp=2 / keyint=250 / keyint_min=24 / scenecut=40 / intra_refresh=0 / rc_lookahead=50 / rc=abr / mbtree=1 / bitrate=1100 / ratetol=1.0 / qcomp=0.60 / qpmin=0 / qpmax=69 / qpstep=4 / ip_ratio=1.40 / aq=1:1.00
Encoded date : UTC 2021-11-24 08:02:21
Tagged date : UTC 2021-11-24 08:02:21
Codec configuration box : avcC

Audio
ID : 2
Format : AAC LC
Format/Info : Advanced Audio Codec Low Complexity
Codec ID : mp4a-40-2
Duration : 47 min 21 s
Duration_LastFrame : -11 ms
Bit rate mode : Constant
Bit rate : 256 kb/s
Channel(s) : 2 channels
Channel layout : L R
Sampling rate : 48.0 kHz
Frame rate : 46.875 FPS (1024 SPF)
Compression mode : Lossy
Stream size : 86.7 MiB (19%)
Title : RARBG - Hawkeye.S01E01.WEBRip.x264-ION10
Language : English
Default : Yes
Alternate group : 1
Encoded date : UTC 2021-11-24 08:02:21
Tagged date : UTC 2021-11-24 08:02:21

Screenshot / Wideo





Dostępne napisy
Brak napisów
Szczegóły torrenta
Tracker http://tracker.trackerfix.com:80/announce
Multitracker [ Pokaż ]
Kategoria: » » » » [Zgłoś błąd]
Dodane 24-11-2021
Podziękowali:
5 użytkowników 
[ Pokaż ]
Podziękuj!
Pokaż / Ukryj pliki:
Nazwa pliku Rozmiar
Hawkeye.S01E01.WEBRip.x264-ION10.mp4 446.53 MB
RARBG.txt 0.03 KB
RARBG_DO_NOT_MIRROR.exe 0.10 KB
Subs/10_Spanish.srt 34.83 KB
Subs/11_Spanish.srt 35.13 KB
Subs/12_French.srt 31.60 KB
Subs/13_French.srt 31.44 KB
Subs/14_Italian.srt 33.89 KB
Subs/15_Japanese.srt 30.86 KB
Subs/16_Korean.srt 33.56 KB
Subs/17_Dutch.srt 30.37 KB
Subs/18_nor.srt 33.05 KB
Subs/19_Polish.srt 32.10 KB
Subs/20_Portuguese.srt 34.30 KB
Subs/21_Portuguese.srt 34.20 KB
Subs/22_Portuguese.srt 44.71 KB
Subs/23_Finnish.srt 32.39 KB
Subs/24_Swedish.srt 31.85 KB
Subs/2_English.srt 32.54 KB
Subs/3_English.srt 42.14 KB
Subs/4_Chinese.srt 30.55 KB
Subs/5_Chinese.srt 32.27 KB
Subs/6_Chinese.srt 30.49 KB
Subs/7_Danish.srt 25.16 KB
Subs/8_German.srt 32.66 KB
Subs/9_Spanish.srt 33.87 KB
26 plików

<< Poprz.      Następna >>
1 - 2



masti1986 (1)
te seriale coraz głupsze są he
25/11/2021 18:27:06 # 0 0
bolek84 (1)
25/11/2021 12:38:54
AUDIO 10
VIDEO 10

1 - 2
<< Poprz.      Następna >>