Główna Torrenty Wstaw Wstaw Szybkie wstawianie Prośby Napisy Poradnik Załoga Forum
Enable / Włącz Javascript
 Widok 
 Kategorie 
 Nitro Torrent w sieci 
 Top 10 użytkowników 
 Hawkeye S01E02 [WEBRip.x264-ION10] [ENG] [Napisy PL]

Hawkeye S01E02 [WEBRip.x264-ION10] [ENG] [Napisy PL]
Kategoria: » » » »
Ocena użytkowników
Video 10/10
Audio 10/10
Dodane: 24/11/2021
Rozmiar: 458.38 MB
Uploader: SHOW_TnT (10)
seed(ów): 3245
leecher(ów): 1558
Pobrane: 1054
Komentarzy: 3
Pobierz Torrent Pobierz Torrent
Pobierz [Magnet] Pobierz [Magnet]

Obserwuj
Raportuj
Info
Produkcja: USA
Gatunek: Akcja, Sci-Fi
Premiera: 24 listopada 2021 (Świat)
Twórcy: Jonathan Igla
Reżyseria: Bert & Bertie, Rhys Thomas
Scenariusz: Jonathan Igla, Elisa Climent, Katie Mathewson, Tanner Bean
Zdjęcia: Eric Steelberg
https://www.imdb.com/title/tt10160804/
https://www.thetvdb.com/series/marvels-hawkeye
https://www.filmweb.pl/serial/Hawkeye-2021-833975



Opis
Były Avenger Clint Barton, znany również jako Hawkeye, ma pozornie prostą misję w Nowym Jorku po katastrofie: wrócić do swojej rodziny na Boże Narodzenie. Ale kiedy pojawia się zagrożenie z jego przeszłości, Hawkeye niechętnie łączy siły z Kate Bishop, 22-letnią wykwalifikowaną łuczniczką i jego największą fanką, aby rozwikłać kryminalny spisek.


Obsada


Jeremy Renner .... Clint Barton / Hawkeye
Hailee Steinfeld .... Kate Bishop
Vera Farmiga .... Eleanor Bishop
Fra Fee .... Kazi
Tony Dalton .... Jack Duquesne / Swordsman
Alaqua Cox .... Maya Lopez
Piotr Adamczyk .... Tomas
Brian d'Arcy James .... Derek Bishop

Dane Techniczne
MediaInfo  
Video
ID : 1
Format : AVC
Format/Info : Advanced Video Codec
Format profile : High@L3.1
Format settings : CABAC / 5 Ref Frames
Format settings, CABAC : Yes
Format settings, Reference frames : 5 frames
Codec ID : avc1
Codec ID/Info : Advanced Video Coding
Duration : 49 min 14 s
Bit rate : 1 037 kb/s
Nominal bit rate : 1 100 kb/s
Width : 720 pixels
Height : 400 pixels
Display aspect ratio : 16:9
Frame rate mode : Constant
Frame rate : 24.000 FPS
Color space : YUV
Chroma subsampling : 4:2:0
Bit depth : 8 bits
Scan type : Progressive
Bits/(Pixel*Frame) : 0.150
Stream size : 365 MiB (80%)
Title : RARBG - Hawkeye.S01E02.WEBRip.x264-ION10
Writing library : x264 core 152 r2851M ba24899
Encoding settings : cabac=1 / ref=5 / deblock=1:-1:-1 / analyse=0x3:0x113 / me=umh / subme=9 / psy=1 / psy_rd=1.00:0.15 / mixed_ref=1 / me_range=16 / chroma_me=1 / trellis=2 / 8x8dct=1 / cqm=0 / deadzone=21,11 / fast_pskip=1 / chroma_qp_offset=-3 / threads=12 / lookahead_threads=1 / sliced_threads=0 / nr=0 / decimate=1 / interlaced=0 / bluray_compat=0 / constrained_intra=0 / bframes=3 / b_pyramid=2 / b_adapt=2 / b_bias=0 / direct=3 / weightb=1 / open_gop=0 / weightp=2 / keyint=250 / keyint_min=24 / scenecut=40 / intra_refresh=0 / rc_lookahead=50 / rc=abr / mbtree=1 / bitrate=1100 / ratetol=1.0 / qcomp=0.60 / qpmin=0 / qpmax=69 / qpstep=4 / ip_ratio=1.40 / aq=1:1.00
Encoded date : UTC 2021-11-24 08:04:04
Tagged date : UTC 2021-11-24 08:04:04
Codec configuration box : avcC

Audio
ID : 2
Format : AAC LC
Format/Info : Advanced Audio Codec Low Complexity
Codec ID : mp4a-40-2
Duration : 49 min 14 s
Duration_LastFrame : -11 ms
Bit rate mode : Constant
Bit rate : 256 kb/s
Channel(s) : 2 channels
Channel layout : L R
Sampling rate : 48.0 kHz
Frame rate : 46.875 FPS (1024 SPF)
Compression mode : Lossy
Stream size : 90.2 MiB (20%)
Title : RARBG - Hawkeye.S01E02.WEBRip.x264-ION10
Language : English
Default : Yes
Alternate group : 1
Encoded date : UTC 2021-11-24 08:04:04
Tagged date : UTC 2021-11-24 08:04:04

Screenshot / Wideo





Dostępne napisy
Brak napisów
Szczegóły torrenta
Tracker http://tracker.trackerfix.com:80/announce
Multitracker [ Pokaż ]
Kategoria: » » » » [Zgłoś błąd]
Dodane 24-11-2021
Podziękowali:
7 użytkowników 
[ Pokaż ]
Podziękuj!
Pokaż / Ukryj pliki:
Nazwa pliku Rozmiar
Hawkeye.S01E02.WEBRip.x264-ION10.mp4 457.40 MB
RARBG.txt 0.03 KB
RARBG_DO_NOT_MIRROR.exe 0.10 KB
Subs/10_Spanish.srt 50.88 KB
Subs/11_French.srt 44.86 KB
Subs/12_French.srt 44.71 KB
Subs/13_Italian.srt 48.99 KB
Subs/14_Japanese.srt 44.62 KB
Subs/15_Korean.srt 53.70 KB
Subs/16_Dutch.srt 44.55 KB
Subs/17_nor.srt 48.07 KB
Subs/18_Polish.srt 47.14 KB
Subs/19_Portuguese.srt 49.85 KB
Subs/20_Portuguese.srt 58.29 KB
Subs/21_Finnish.srt 46.07 KB
Subs/22_Swedish.srt 45.72 KB
Subs/2_English.srt 50.82 KB
Subs/3_English.srt 56.37 KB
Subs/4_Chinese.srt 44.58 KB
Subs/5_Chinese.srt 48.05 KB
Subs/6_Chinese.srt 44.18 KB
Subs/7_Danish.srt 36.30 KB
Subs/8_German.srt 47.57 KB
Subs/9_Spanish.srt 49.09 KB
24 plików

<< Poprz.      Następna >>
1 - 3

bolek84 (1)
25/11/2021 12:38:00
AUDIO 10
VIDEO 10


SHOW_TnT (10)
@grzegorzg102 - A może byś tak otworzył oczęta?
24/11/2021 19:56:30 # 1 0


grzegorzg102 (1)
a gdzie napisy? ?
24/11/2021 19:51:00 # 1 0

1 - 3
<< Poprz.      Następna >>