Główna Torrenty Wstaw Wstaw Szybkie wstawianie Prośby Napisy Poradnik Załoga Forum
Enable / Włącz Javascript
 Widok 
 Kategorie 
 Nitro Torrent w sieci 
 Top 10 użytkowników 
 SEAL Team S05E11 (Violence of Action) [1080p.AMZN.WEBRip.DDP5.1.x264-NTb] [ENG] [Sub.ENG]

SEAL Team S05E11 (Violence of Action) [1080p.AMZN.WEBRip.DDP5.1.x264-NTb] [ENG] [Sub.ENG]
Kategoria: » » » »
Dodane: 15/01/2022
Rozmiar: 2.86 GB
Uploader: SHOW_TnT (11)
seed(ów): 0
leecher(ów): 0
Pobrane: 66
Komentarzy: 2
Pobierz Torrent Pobierz Torrent
Pobierz [Magnet] Pobierz [Magnet]

Obserwuj
Raportuj
Info
Premiera sezonu 5: 10.10.2021r. USA; Stacja  CBS (sezon 1-5A), Paramount+ (sezon 5B)
Gatunek: Dramat, Wojenny, Akcja
Muzyka: A. Patrick Rose, W.G. Snuffy Walden
Zdjęcia: James M. Muro, Gonzalo Amat
https://www.thetvdb.com/series/seal-team
https://www.tvmaze.com/shows/28160/seal-team
https://www.cbs.com/shows/seal-team/
https://www.filmweb.pl/serial/Seal+Team-2017-788553
https://www.imdb.com/title/tt6473344/


Opis
SEAL Team skupia się na zawodowym i prywatnym życiu żołnierzy elitarnej jednostki Marynarki Wojennej Stanów Zjednoczonych. Serial opowiada o ich treningach, planowaniu i strategiach, a także wypełnianiu najbardziej niebezpiecznych misji.

Obsada


- David Boreanaz .... Jason Hayes
- Max Thieriot .... Clay Spenser
- Neil Brown Jr. .... Ray Perry
- Jessica Paré .... Mandy Ellis
- A.J. Buckley .... Sonny Quinn
- Toni Trucks .... Lisa Davis
- Judd Lormand .... Komandor porucznik Eric Blackburn
- Justin Melnick .... Brock


Screenshot / Wideo


Dane Techniczne
SEAL.Team.S05E11.Violence.of.Action.1080p.AMZN.WEBRip.DDP5.1.x264-NTb
MediaInfo  
Video
ID : 1
Format : AVC
Format/Info : Advanced Video Codec
Format profile : High@L4
Format settings : CABAC / 4 Ref Frames
Format settings, CABAC : Yes
Format settings, Reference frames : 4 frames
Codec ID : V_MPEG4/ISO/AVC
Duration : 45 min 2 s
Bit rate mode : Constant
Bit rate : 8 441 kb/s
Nominal bit rate : 10 000 kb/s
Width : 1 920 pixels
Height : 1 080 pixels
Display aspect ratio : 16:9
Frame rate mode : Constant
Frame rate : 24.000 FPS
Color space : YUV
Chroma subsampling : 4:2:0
Bit depth : 8 bits
Scan type : Progressive
Bits/(Pixel*Frame) : 0.170
Stream size : 2.66 GiB (93%)
Default : Yes
Forced : No
Color range : Limited
Color primaries : BT.709
Transfer characteristics : BT.709
Matrix coefficients : BT.709

Audio
ID : 2
Format : E-AC-3
Format/Info : Enhanced AC-3
Commercial name : Dolby Digital Plus
Codec ID : A_EAC3
Duration : 45 min 2 s
Bit rate mode : Constant
Bit rate : 640 kb/s
Channel(s) : 6 channels
Channel layout : L R C LFE Ls Rs
Sampling rate : 48.0 kHz
Frame rate : 31.250 FPS (1536 SPF)
Compression mode : Lossy
Stream size : 206 MiB (7%)
Language : English
Service kind : Complete Main
Default : Yes
Forced : No

Text #1
ID : 3
Format : UTF-8
Codec ID : S_TEXT/UTF8
Codec ID/Info : UTF-8 Plain Text
Duration : 44 min 6 s
Bit rate : 84 b/s
Count of elements : 778
Stream size : 27.3 KiB (0%)
Language : English
Default : No
Forced : No

Text #2
ID : 4
Format : UTF-8
Codec ID : S_TEXT/UTF8
Codec ID/Info : UTF-8 Plain Text
Duration : 44 min 6 s
Bit rate : 90 b/s
Count of elements : 839
Stream size : 29.4 KiB (0%)
Title : SDH
Language : English
Default : No
Forced : No


Dostępne napisy
Brak napisów
Szczegóły torrenta
Tracker http://tracker.trackerfix.com:80/announce
Multitracker [ Pokaż ]
Kategoria: » » » » [Zgłoś błąd]
Dodane 15-01-2022
Podziękowali:
0 użytkowników 
Podziękuj!
Pokaż / Ukryj pliki:
Nazwa pliku Rozmiar
RARBG.txt 0.03 KB
RARBG_DO_NOT_MIRROR.exe 0.10 KB
SEAL.Team.S05E11.Violence.of.Action.1080p.AMZN.WEB-DL.DDP5.1.H.264-NTb.mkv 2.86 GB
3 plików

<< Poprz.      Następna >>
1 - 2



Angelo_635 (1)
Kiedy będzie ten film z lektorem  
09/05/2022 21:05:51 # 0 0


Angelo_635 (1)
Kiedy będzie ten film z lektorem  
09/05/2022 21:05:36 # 0 0

1 - 2
<< Poprz.      Następna >>