Główna Torrenty Wstaw Wstaw Szybkie wstawianie Prośby Napisy Poradnik Załoga Forum
Enable / Włącz Javascript
 Widok 
 Kategorie 
 Nitro Torrent w sieci 
 Top 10 użytkowników 
 Obi-Wan Kenobi *2022* [Sezon 01] [10Bit HDR] [MULTi.2160p.WEB-DL.H265.EAC.5.1.Atmos] [Dubbing PL & Napisy PL]

Obi-Wan Kenobi *2022* [Sezon 01] [10Bit HDR] [MULTi.2160p.WEB-DL.H265.EAC.5.1.Atmos] [Dubbing PL & Napisy PL] wielopaczka Dla Nitro.To
Kategoria: » » » »
Dodane: 22/06/2022
Rozmiar: 29.68 GB
Uploader: xmatr1x (1)
seed(ów): 26
leecher(ów): 39
Pobrane: 824
Komentarzy: 1
Pobierz Torrent Pobierz Torrent
Pobierz [Magnet] Pobierz [Magnet]

Obserwuj
Raportuj
Info
Produkcja: USA
Gatunek: Przygodowy, Sci-Fi
Twórca: Joby Harold
Platforma: Disney+
Premiera: 27 maja 2022

Opis
10 lat po pokonaniu Anakina Skywalkera na planecie Mustafar, były mistrz Jedi, Obi-Wan Kenobi musi znów stawić czoła dawnemu uczniowi i jego inkwizytorom.

Obsada
Ewan McGregor .... Obi-Wan Kenobi
Hayden Christensen .... Darth Vader
Indira Varma .... Tia
Joel Edgerton .... Owen Lars
Bonnie Piesse .... Beru Lars
Moses Ingram .... Inkwizytorka Reva
Sung Kang .... Piąty brat
Grant Feely .... Luke Skywalker

Dane Techniczne
Video
Format                                   : HEVC
Format/Info                              : High Efficiency Video Coding
Format profile                           : Main 10@L5@High
HDR format                               : SMPTE ST 2086, HDR10 compatible
Codec ID                                 : V_MPEGH/ISO/HEVC
Duration                                 : 40 min 11 s
Bit rate                                 : 15.3 Mb/s
Width                                    : 3 840 pixels
Height                                   : 2 160 pixels
Display aspect ratio                     : 16:9
Frame rate mode                          : Constant
Frame rate                               : 24.000 FPS
Color space                              : YUV
Chroma subsampling                       : 4:2:0
Bit depth                                : 10 bits
Bits/(Pixel*Frame)                       : 0.077
Stream size                              : 4.29 GiB (94%)
Language                                 : English
Default                                  : Yes
Forced                                   : No
Color range                              : Limited
Color primaries                          : BT.2020
Transfer characteristics                 : PQ
Matrix coefficients                      : BT.2020 non-constant
Mastering display color primaries        : BT.2020
Mastering display luminance              : min: 0.0000 cd/m2, max: 1000 cd/m2

Audio #1
Format                                   : E-AC-3 JOC
Format/Info                              : Enhanced AC-3 with Joint Object Coding
Commercial name                          : Dolby Digital Plus with Dolby Atmos
Codec ID                                 : A_EAC3
Duration                                 : 40 min 11 s
Bit rate mode                            : Constant
Bit rate                                 : 768 kb/s
Channel(s)                               : 6 channels
Channel layout                           : L R C LFE Ls Rs
Sampling rate                            : 48.0 kHz
Frame rate                               : 31.250 FPS (1536 SPF)
Compression mode                         : Lossy
Stream size                              : 221 MiB (5%)
Title                                    : Original
Language                                 : English
Service kind                             : Complete Main
Default                                  : Yes
Forced                                   : No
Complexity index                         : 16
Number of dynamic objects                : 15
Bed channel count                        : 1 channel
Bed channel configuration                : LFE

Audio #2
Format                                   : E-AC-3
Format/Info                              : Enhanced AC-3
Commercial name                          : Dolby Digital Plus
Codec ID                                 : A_EAC3
Duration                                 : 40 min 11 s
Bit rate mode                            : Constant
Bit rate                                 : 256 kb/s
Channel(s)                               : 6 channels
Channel layout                           : L R C LFE Ls Rs
Sampling rate                            : 48.0 kHz
Frame rate                               : 31.250 FPS (1536 SPF)
Compression mode                         : Lossy
Stream size                              : 73.6 MiB (2%)
Title                                    : Dubbing PL
Language                                 : Polish
Service kind                             : Complete Main
Default                                  : No
Forced                                   : No

Text #1
Format                                   : UTF-8
Codec ID                                 : S_TEXT/UTF8
Codec ID/Info                            : UTF-8 Plain Text
Duration                                 : 39 min 58 s
Bit rate                                 : 29 b/s
Count of elements                        : 343
Stream size                              : 8.54 KiB (0%)
Title                                    : Napisy PL
Language                                 : Polish
Default                                  : Yes
Forced                                   : No

Text #2
Format                                   : UTF-8
Codec ID                                 : S_TEXT/UTF8
Codec ID/Info                            : UTF-8 Plain Text
Duration                                 : 1 s 375 ms
Bit rate                                 : 58 b/s
Count of elements                        : 1
Stream size                              : 10.0 Bytes (0%)
Title                                    : Forced PL
Language                                 : Polish
Default                                  : No
Forced                                   : Yes
Dostępne napisy
Brak napisów
Szczegóły torrenta
Tracker udp://tracker.opentrackr.org:1337/announce
Multitracker [ Pokaż ]
Kategoria: » » » » [Zgłoś błąd]
Dodane 22-06-2022
Podziękowali:
2 użytkowników 
[ Pokaż ]
Podziękuj!
Pokaż / Ukryj pliki:
Nazwa pliku Rozmiar
Obi-Wan Kenobi - S01E01.mkv 6.02 GB
Downloaded from Nitro.to.txt 0.10 KB
Obi-Wan Kenobi - S01E02.mkv 4.36 GB
Obi-Wan Kenobi - S01E03.mkv 5.10 GB
Obi-Wan Kenobi - S01E04.mkv 4.06 GB
Obi-Wan Kenobi - S01E05.mkv 4.58 GB
Obi-Wan Kenobi - S01E06.mkv 5.56 GB
7 plików

<< Poprz.      Następna >>
1 - 1



bratek777 (2)
Ma ktoś 2 sezon Barry poprosiłbym .
22/06/2022 20:31:26 # 0 0

1 - 1
<< Poprz.      Następna >>