Główna Torrenty Wstaw Wstaw Szybkie wstawianie Prośby Napisy Poradnik Załoga Forum
Enable / Włącz Javascript
 Widok 
 Kategorie 
 Nitro Torrent w sieci 
 Top 10 użytkowników 
 Minionki: Wejście Gru - Minions: The Rise of Gru 2022 [720p.HDCAM.H265] [Dubbing PL KINO]

Minionki: Wejście Gru - Minions: The Rise of Gru 2022 [720p.HDCAM.H265] [Dubbing PL KINO]
Kategoria: » » »
Dodane: 14/07/2022
Rozmiar: 2.70 GB
Uploader: Koshi (1)
seed(ów): 16
leecher(ów): 6
Pobrane: 2747
Komentarzy: 6
Pobierz Torrent Pobierz Torrent
Pobierz [Magnet] Pobierz [Magnet]

Obserwuj
Raportuj
Info

reżyseria: Kyle Balda
scenariusz: Matthew Fogel
gatunek: Animacja / Komedia / Przygodowy
produkcja: USA
premiera: 1 lipca 2022 (Polska premiera kinowa)

Opis

Na długo przed tym, jak został panem zła, Gru jest zaledwie 12-letnim chłopcem mieszkającym na przedmieściach w latach 70-tych, pracującym w swojej piwnicy nad planem przejęcia władzy nad światem. Długo jednak nie odnosi żadnego znaczącego sukcesu.

Info

Video
ID                                       : 1
Format                                   : HEVC
Format/Info                              : High Efficiency Video Coding
Format profile                           : Main 10@L4.1@High
Codec ID                                 : V_MPEGH/ISO/HEVC
Duration                                 : 1 h 20 min
Bit rate                                 : 4 252 kb/s
Width                                    : 1 280 pixels
Height                                   : 484 pixels
Display aspect ratio                     : 2.645
Frame rate mode                          : Constant
Frame rate                               : 24.000 FPS
Color space                              : YUV
Chroma subsampling                       : 4:2:0
Bit depth                                : 10 bits
Bits/(Pixel*Frame)                       : 0.286
Stream size                              : 2.39 GiB (93%)

Audio
ID                                       : 2
Format                                   : AC-3
Format/Info                              : Audio Coding 3
Commercial name                          : Dolby Digital
Codec ID                                 : A_AC3
Duration                                 : 1 h 20 min
Bit rate mode                            : Constant
Bit rate                                 : 320 kb/s
Channel(s)                               : 2 channels
Channel layout                           : L R
Sampling rate                            : 48.0 kHz
Frame rate                               : 31.250 FPS (1536 SPF)
Compression mode                         : Lossy
Stream size                              : 184 MiB (7%)
Title                                    : english
Language                                 : English
Service kind                             : Complete Main
Default                                  : Yes
Forced                                   : No

Text
ID                                       : 3
Format                                   : UTF-8
Codec ID                                 : S_TEXT/UTF8
Codec ID/Info                            : UTF-8 Plain Text
Duration                                 : 1 h 20 min
Bit rate                                 : 31 b/s
Frame rate                               : 0.133 FPS
Count of elements                        : 642
Stream size                              : 18.4 KiB (0%)
Title                                    : english
Language                                 : English
Default                                  : No
Forced                                   : No
Dostępne napisy
Brak napisów
Szczegóły torrenta
Tracker http://1337.abcvg.info:80/announce
Multitracker [ Pokaż ]
Kategoria: » » » [Zgłoś błąd]
Dodane 14-07-2022
Podziękowali:
3 użytkowników 
[ Pokaż ]
Podziękuj!
Pokaż / Ukryj pliki:
Nazwa pliku Rozmiar
Minions.The.Rise.Of.Gru.2022.720p.TELESYNC.x265.REPACK-iDiOTS.mkv 2.70 GB
Minions.The.Rise.Of.Gru.2022.720p.TELESYNC.x265.REPACK-iDiOTS.nfo 5.28 KB
2 plików

<< Poprz.      Następna >>
1 - 6



jg1968 (1)
@sebekb6c: a skąd pobrać dobrą wersję z dobrym dubbingiem?
05/08/2022 13:24:18 # 0 0


sebekb6c (1)
Na VLC jest dubbing PL
17/07/2022 14:43:25 # 0 0


MichalZGD (10)
@mr_blant



Dziwne ja mam Napisy polskie i Dubbing Polski
16/07/2022 22:11:30 # 0 0


Mr.Boss (13)
@mr_blant @LordAnayami czemu wprowadzacie w błąd, bajka ma dubbing PL
16/07/2022 14:05:39 # 1 0


mr_blant (1)
LEKTOR PO ANGIELSKU subtitle angielske
16/07/2022 13:24:50 # 0 2


LordAnayami (1)
Wersja językowa angielska
16/07/2022 12:56:04 # 0 3

1 - 6
<< Poprz.      Następna >>