Główna Torrenty Wstaw Wstaw Szybkie wstawianie Prośby Napisy Poradnik Załoga Forum
Enable / Włącz Javascript
 Widok 
 Kategorie 
 Nitro Torrent w sieci 
 Top 10 użytkowników 
 Andor *2022* [S01E03] [10Bit HDR] [MULTi.2160p.WEB-DL.H265.EAC.5.1.Atmos] [Dubbing PL & Napisy PL]

Andor *2022* [S01E03] [10Bit HDR] [MULTi.2160p.WEB-DL.H265.EAC.5.1.Atmos] [Dubbing PL & Napisy PL]
Kategoria: » » » »
Ocena użytkowników
Video 7/10
Audio 7/10
Dodane: 22/09/2022
Rozmiar: 4.49 GB
Uploader: xmatr1x (2)
seed(ów): 0
leecher(ów): 0
Pobrane: 380
Komentarzy: 5
Pobierz Torrent Pobierz Torrent
Pobierz [Magnet] Pobierz [Magnet]

Obserwuj
Raportuj
Info
Produkcja: USA
Gatunek: Przygodowy, Sci-Fi
Premiera: 21 września 2022 (Świat)
Platforma: Disney+
Reżyserzy: Toby Haynes, Susanna White
Producenci: Tony Gilroy, Kate Hazell
Scenarzyści: Tony Gilroy, George Lucas
Kompozytorzy: Nicholas Britell

Opis
W odpowiedzi na działania Imperium Galaktycznego utworzony zostaje Sojusz Rebeliantow. Złodziej Cassian Andor dołącza do rewolucjonistow i staje się szpiegiem Rebelii.

Obsada
Diego Luna ... Cassian Andor
Kyle Soller ... Syril Karn
Adria Arjona ... Bix Caleen
Joplin Sibtain ... Brasso
James McArdle ... Timm Karlo
Stellan Skarsg?rd ... Luthen Rael
Fiona Shaw ... Maarva Andor
Alex Ferns ... Sierżant Linus Mosk

Dane Techniczne
Video
ID                                       : 1
Format                                   : HEVC
Format/Info                              : High Efficiency Video Coding
Format profile                           : Main 10@L5@High
HDR format                               : SMPTE ST 2086, HDR10 compatible
Codec ID                                 : V_MPEGH/ISO/HEVC
Duration                                 : 40 min 17 s
Bit rate                                 : 14.9 Mb/s
Width                                    : 3 840 pixels
Height                                   : 2 160 pixels
Display aspect ratio                     : 16:9
Frame rate mode                          : Constant
Frame rate                               : 24.000 FPS
Color space                              : YUV
Chroma subsampling                       : 4:2:0
Bit depth                                : 10 bits
Bits/(Pixel*Frame)                       : 0.075
Stream size                              : 4.20 GiB (94%)
Language                                 : English
Default                                  : Yes
Forced                                   : No
Color range                              : Limited
Color primaries                          : BT.2020
Transfer characteristics                 : PQ
Matrix coefficients                      : BT.2020 non-constant
Mastering display color primaries        : BT.2020
Mastering display luminance              : min: 0.0000 cd/m2, max: 1000 cd/m2

Audio #1
ID                                       : 2
Format                                   : E-AC-3
Format/Info                              : Enhanced AC-3
Commercial name                          : Dolby Digital Plus
Codec ID                                 : A_EAC3
Duration                                 : 40 min 17 s
Bit rate mode                            : Constant
Bit rate                                 : 256 kb/s
Channel(s)                               : 6 channels
Channel layout                           : L R C LFE Ls Rs
Sampling rate                            : 48.0 kHz
Frame rate                               : 31.250 FPS (1536 SPF)
Compression mode                         : Lossy
Stream size                              : 73.8 MiB (2%)
Title                                    : Dubbing PL
Language                                 : Polish
Service kind                             : Complete Main
Default                                  : Yes
Forced                                   : No

Audio #2
ID                                       : 3
Format                                   : E-AC-3 JOC
Format/Info                              : Enhanced AC-3 with Joint Object Coding
Commercial name                          : Dolby Digital Plus with Dolby Atmos
Codec ID                                 : A_EAC3
Duration                                 : 40 min 17 s
Bit rate mode                            : Constant
Bit rate                                 : 768 kb/s
Channel(s)                               : 6 channels
Channel layout                           : L R C LFE Ls Rs
Sampling rate                            : 48.0 kHz
Frame rate                               : 31.250 FPS (1536 SPF)
Compression mode                         : Lossy
Stream size                              : 221 MiB (5%)
Title                                    : Original
Language                                 : English
Service kind                             : Complete Main
Default                                  : No
Forced                                   : No
Complexity index                         : 16
Number of dynamic objects                : 15
Bed channel count                        : 1 channel
Bed channel configuration                : LFE

Text #1
ID                                       : 4
Format                                   : UTF-8
Codec ID                                 : S_TEXT/UTF8
Codec ID/Info                            : UTF-8 Plain Text
Duration                                 : 1 s 208 ms
Bit rate                                 : 132 b/s
Count of elements                        : 1
Stream size                              : 20.0 Bytes (0%)
Title                                    : Forced PL
Language                                 : Polish
Default                                  : Yes
Forced                                   : Yes

Text #2
ID                                       : 5
Format                                   : UTF-8
Codec ID                                 : S_TEXT/UTF8
Codec ID/Info                            : UTF-8 Plain Text
Duration                                 : 40 min 7 s
Bit rate                                 : 44 b/s
Count of elements                        : 456
Stream size                              : 13.1 KiB (0%)
Title                                    : Napisy PL
Language                                 : Polish
Default                                  : No
Forced                                   : No

Dostępne napisy
Brak napisów
Szczegóły torrenta
Tracker udp://tracker.opentrackr.org:1337/announce
Multitracker [ Pokaż ]
Kategoria: » » » » [Zgłoś błąd]
Dodane 22-09-2022
Podziękowali:
1 użytkownik 
[ Pokaż ]
Podziękuj!
Pokaż / Ukryj pliki:
Nazwa pliku Rozmiar
Andor - S01E03.mkv 4.49 GB
1 plik

<< Poprz.      Następna >>
1 - 5

Mr.Boss (13)
24/09/2022 17:42:41
AUDIO 10
VIDEO 10


Mr.Boss (13)
@homernet czemu taka ocena  
24/09/2022 17:41:27 # 0 0


SNAKE (10)
AUDIO 10
VIDEO 10
Sprawdziłem zero problemów
24/09/2022 17:37:03 # 2 0
Komentarz napisany przez użytkownika xmatr1x (2) został skasowany.
homernet (1)
22/09/2022 20:06:23
AUDIO 1
VIDEO 1

1 - 5
<< Poprz.      Następna >>